<?xml version="1.0" standalone="no"?>
<!DOCTYPE svg PUBLIC "-//W3C//DTD SVG 1.1//EN" "http://www.w3.org/Graphics/SVG/1.1/DTD/svg11.dtd" >
<svg xmlns="http://www.w3.org/2000/svg" xmlns:xlink="http://www.w3.org/1999/xlink" version="1.1">
<metadata>
Created by FontForge 20170731 at Tue May 24 20:51:53 2016
 By Aleksey,,,
Copyright (c) 2015, Cadson Demak (info@cadsondemak.com)
</metadata>
<defs>
<font id="Prompt-Light" horiz-adv-x="0" >
  <font-face 
    font-family="Prompt Light"
    font-weight="300"
    font-stretch="normal"
    units-per-em="1000"
    panose-1="0 0 4 0 0 0 0 0 0 0"
    ascent="750"
    descent="-250"
    x-height="480"
    cap-height="699"
    bbox="-590 -351 1238 1042"
    underline-thickness="50"
    underline-position="-150"
    unicode-range="U+000D-FB02"
  />
<missing-glyph horiz-adv-x="505" 
d="M50 714h405v-714h-405v714zM415 41v632h-325v-632h325z" />
    <glyph glyph-name="fi" unicode="fi" horiz-adv-x="574" 
d="M105 420h-75v60h75v104q0 77 49 118.5t123 41.5q38 0 71 -10v-62q-24 10 -57 10q-53 0 -81 -26.5t-28 -75.5v-100h312v-480h-77v420h-235v-420h-77v420zM421 598q-14 14 -14 34t14 34t34 14t34.5 -14t14.5 -34t-14.5 -34t-34.5 -14t-34 14z" />
    <glyph glyph-name="fl" unicode="fl" horiz-adv-x="565" 
d="M105 420h-75v60h75v106q0 77 49 117.5t123 40.5q38 0 71 -10v-62q-24 10 -54 10q-54 0 -83 -25.5t-29 -74.5v-102h236v209h77v-689h-77v420h-236v-420h-77v420z" />
    <glyph glyph-name="ru_lakkhangyaothai" unicode="&#xe24;&#xe45;" horiz-adv-x="864" 
d="M484 341q0 75 -40.5 111t-120.5 36q-62 0 -106.5 -18t-83.5 -60l44 -69v-224q0 -29 11.5 -40.5t39.5 -11.5h58v-65h-90q-47 0 -71.5 26t-24.5 72v242l-50 79q50 64 116 97.5t157 33.5q81 0 139 -28q24 12 61.5 20t75.5 8q99 0 147 -53t48 -152v-541h-77v546
q0 71 -29 104.5t-99 33.5q-38 0 -73 -8q45 -51 45 -132v-544h-77v537z" />
    <glyph glyph-name="lu_lakkhangyaothai" unicode="&#xe26;&#xe45;" horiz-adv-x="887" 
d="M508 341q0 147 -161 147q-62 0 -106.5 -18t-81.5 -58l62 -70v-244q0 -46 -24.5 -72t-71.5 -26h-75v65h45q29 0 39 10.5t10 41.5v223l-70 79q49 64 115.5 97.5t157.5 33.5q82 0 138 -28q24 12 61.5 20t75.5 8q99 0 147 -53t48 -152v-541h-77v546q0 71 -29 104.5t-99 33.5
q-37 0 -72 -8q45 -51 45 -132v-544h-77v537z" />
    <glyph glyph-name=".notdef" horiz-adv-x="505" 
d="M50 714h405v-714h-405v714zM415 41v632h-325v-632h325z" />
    <glyph glyph-name=".null" horiz-adv-x="500" 
 />
    <glyph glyph-name="nonmarkingreturn" unicode="&#xd;" horiz-adv-x="260" 
 />
    <glyph glyph-name="space" unicode=" " horiz-adv-x="380" 
 />
    <glyph glyph-name="exclam" unicode="!" horiz-adv-x="197" 
d="M61 699h75v-507h-75v507zM64 -1q-14 14 -14 34t14 34t34 14t34.5 -14t14.5 -34t-14.5 -34t-34.5 -14t-34 14z" />
    <glyph glyph-name="quotedbl" unicode="&#x22;" horiz-adv-x="327" 
d="M50 699h77v-181h-77v181zM200 699h77v-181h-77v181z" />
    <glyph glyph-name="numbersign" unicode="#" horiz-adv-x="756" 
d="M147 180h-97v67h116l54 192h-129v67h148l55 193h71l-55 -193h231l55 193h71l-55 -193h94v-67h-113l-54 -192h126v-67h-145l-50 -180h-71l50 180h-231l-50 -180h-71zM468 247l54 192h-231l-54 -192h231z" />
    <glyph glyph-name="dollar" unicode="$" horiz-adv-x="555" 
d="M250 -15q-57 1 -111 11t-89 26v72q92 -41 200 -41v273q-3 0 -5 2q-100 40 -144 87t-44 119q0 73 52.5 121.5t140.5 56.5v90h69v-89q84 -4 154 -35v-70q-77 33 -154 36v-269q67 -27 105.5 -50.5t59.5 -60t21 -93.5q0 -77 -47 -124t-139 -58v-92h-69v88zM250 642
q-58 -8 -87.5 -36t-29.5 -72q0 -43 27 -73t90 -58v239zM429 171q0 47 -24.5 73t-85.5 53v-239q110 19 110 113z" />
    <glyph glyph-name="percent" unicode="%" horiz-adv-x="879" 
d="M141 371.5q-42 24.5 -66.5 66.5t-24.5 92t24.5 92.5t66.5 67t92 24.5t92.5 -24.5t67 -67t24.5 -92.5t-24.5 -92t-67 -66.5t-92.5 -24.5t-92 24.5zM595 699h76l-387 -699h-76zM320 442q35 35 35 87t-35 87t-87 35t-87 -35t-35 -87t35 -87t87 -35t87 35zM553 9.5
q-42 24.5 -66.5 66.5t-24.5 92t24.5 92.5t66.5 67t92 24.5t92.5 -24.5t67 -67t24.5 -92.5t-24.5 -92t-67 -66.5t-92.5 -24.5t-92 24.5zM732 80q35 35 35 87t-35 87t-87 35t-87 -35t-35 -87t35 -87t87 -35t87 35z" />
    <glyph glyph-name="ampersand" unicode="&#x26;" horiz-adv-x="765" 
d="M120.5 35q-70.5 50 -70.5 139q0 66 38.5 116t123.5 96q-53 47 -75.5 84.5t-22.5 83.5q0 75 47.5 117.5t126.5 42.5q50 0 89 -21t61 -57.5t22 -81.5q0 -53 -30 -89.5t-107 -88.5l208 -199q20 33 27.5 73t7.5 100h76q0 -74 -12.5 -126t-43.5 -100l129 -124h-96l-78 76
q-45 -47 -103.5 -69t-134.5 -22q-112 0 -182.5 50zM361.5 484.5q24.5 28.5 24.5 69.5q0 44 -26 68.5t-72 24.5q-48 0 -74 -24t-26 -69q0 -36 19 -63t68 -73q62 38 86.5 66.5zM489 126l-224 216q-73 -38 -105 -75.5t-32 -92.5q0 -59 48 -90.5t127 -31.5q121 0 186 74z" />
    <glyph glyph-name="quotesingle" unicode="'" horiz-adv-x="177" 
d="M50 699h77v-181h-77v181z" />
    <glyph glyph-name="parenleft" unicode="(" horiz-adv-x="312" 
d="M87.5 26q-37.5 113 -37.5 244t37.5 244t108.5 200h84q-76 -98 -114 -205t-38 -239t38 -239t114 -205h-84q-71 87 -108.5 200z" />
    <glyph glyph-name="parenright" unicode=")" horiz-adv-x="312" 
d="M146 31q38 107 38 239t-38 239t-114 205h84q71 -87 108.5 -200t37.5 -244t-37.5 -244t-108.5 -200h-84q76 98 114 205z" />
    <glyph glyph-name="asterisk" unicode="*" horiz-adv-x="431" 
d="M91 421l85 117l-126 45l19 46l118 -44v114h57v-114l118 44l19 -46l-126 -44l85 -117l-45 -28l-79 111l-80 -112z" />
    <glyph glyph-name="plus" unicode="+" horiz-adv-x="407" 
d="M171 263h-121v65h121v122h64v-122h122v-65h-122v-121h-64v121z" />
    <glyph glyph-name="comma" unicode="," horiz-adv-x="261" 
d="M130 50h81l-91 -197h-70z" />
    <glyph glyph-name="hyphen" unicode="-" horiz-adv-x="407" 
d="M50 328h307v-65h-307v65z" />
    <glyph glyph-name="period" unicode="." horiz-adv-x="189" 
d="M62.5 12.5q-12.5 12.5 -12.5 31.5t12.5 32t31.5 13t32 -13t13 -32t-13 -31.5t-32 -12.5t-31.5 12.5z" />
    <glyph glyph-name="slash" unicode="/" horiz-adv-x="466" 
d="M335 714h81l-285 -714h-81z" />
    <glyph glyph-name="zero" unicode="0" horiz-adv-x="662" 
d="M180 29q-63 44 -96.5 126t-33.5 194t33 194t96 126.5t152 44.5t152 -44.5t96 -126.5t33 -194t-33.5 -194t-96.5 -126t-151 -44t-151 44zM440.5 87.5q46.5 36.5 72 104t25.5 157.5t-24.5 157t-71.5 104t-111 37t-111 -37t-71.5 -104t-24.5 -157t25.5 -157.5t72 -104
t109.5 -36.5t109.5 36.5z" />
    <glyph glyph-name="one" unicode="1" horiz-adv-x="353" 
d="M205 614l-155 -112v77l163 120h70v-699h-78v614z" />
    <glyph glyph-name="two" unicode="2" horiz-adv-x="578" 
d="M50 52l164 164l48 46q58 56 89 90.5t51 74t20 84.5q0 65 -38.5 100.5t-114.5 35.5q-94 0 -185 -68v76q82 59 196 59q103 0 161.5 -55.5t58.5 -147.5q0 -48 -22 -93.5t-60.5 -91t-104.5 -111.5l-148 -149h363v-66h-478v52z" />
    <glyph glyph-name="three" unicode="3" horiz-adv-x="569" 
d="M144.5 -6q-54.5 9 -94.5 27v71q89 -40 199 -40q192 0 192 139q0 69 -51 100t-151 31h-77v66h75q81 0 131.5 34.5t50.5 98.5q0 126 -157 126q-55 0 -99.5 -13t-92.5 -43v70q86 53 200 53q111 0 169 -51.5t58 -141.5q0 -122 -130 -165q73 -13 112.5 -56t39.5 -109
q0 -94 -63 -150t-199 -56q-58 0 -112.5 9z" />
    <glyph glyph-name="four" unicode="4" horiz-adv-x="593" 
d="M377 178h-347v56l342 465h83v-455h108v-66h-108v-178h-78v178zM383 244v359l-261 -359h261z" />
    <glyph glyph-name="five" unicode="5" horiz-adv-x="563" 
d="M136.5 -4q-50.5 11 -86.5 30v75q39 -23 90 -36t98 -13q96 0 146.5 43.5t50.5 124.5q0 155 -183 155q-38 0 -78.5 -7t-70.5 -19l-38 22l26 328h371v-66h-301l-16 -201q59 14 129 14q74 0 128 -28.5t82.5 -79.5t28.5 -118q0 -112 -68 -173.5t-205 -61.5q-53 0 -103.5 11z
" />
    <glyph glyph-name="six" unicode="6" horiz-adv-x="600" 
d="M174.5 18q-57.5 33 -91 99t-33.5 160q0 213 82 325t241 112q51 0 88 -10v-69q-36 12 -82 12q-118 0 -177.5 -71t-69.5 -216q27 42 78 64t113 22q67 0 118.5 -28t80 -80t28.5 -120t-30 -120.5t-85.5 -82.5t-130.5 -30q-72 0 -129.5 33zM426 96.5q46 45.5 46 121.5
t-45.5 118.5t-122.5 42.5q-73 0 -121.5 -44t-48.5 -120q0 -44 21.5 -81.5t60 -60t88.5 -22.5q76 0 122 45.5z" />
    <glyph glyph-name="seven" unicode="7" horiz-adv-x="546" 
d="M427 633h-387v66h466v-62l-287 -637h-76z" />
    <glyph glyph-name="eight" unicode="8" horiz-adv-x="592" 
d="M116 37.5q-66 52.5 -66 150.5q0 70 38 116.5t100 61.5q-52 17 -82.5 60t-30.5 101q0 86 60.5 136.5t160.5 50.5t160.5 -50.5t60.5 -136.5q0 -58 -30.5 -101t-82.5 -60q62 -15 100 -61.5t38 -116.5q0 -98 -66 -150.5t-180 -52.5t-180 52.5zM399.5 428q39.5 35 39.5 92
q0 59 -39 95.5t-104 36.5t-104 -36.5t-39 -95.5q0 -57 39.5 -92t103.5 -35t103.5 35zM420 83q44 40 44 111q0 67 -46.5 106.5t-121.5 39.5t-121.5 -39.5t-46.5 -106.5q0 -71 44 -111t124 -40t124 40z" />
    <glyph glyph-name="nine" unicode="9" horiz-adv-x="600" 
d="M139 -5v69q36 -12 82 -12q118 0 178 71t70 215q-27 -42 -78 -63.5t-114 -21.5q-67 0 -118.5 28t-80 80t-28.5 120t30 120.5t85.5 82.5t130.5 30q115 0 184.5 -74t69.5 -218q0 -213 -82 -325t-241 -112q-51 0 -88 10zM417.5 364q48.5 44 48.5 120q0 44 -21.5 81.5t-60 60
t-88.5 22.5q-76 0 -122 -45.5t-46 -121.5t45.5 -118.5t122.5 -42.5q73 0 121.5 44z" />
    <glyph glyph-name="colon" unicode=":" horiz-adv-x="189" 
d="M62.5 399.5q-12.5 12.5 -12.5 31.5t12.5 32t31.5 13t32 -13t13 -32t-13 -31.5t-32 -12.5t-31.5 12.5zM62.5 37.5q-12.5 12.5 -12.5 31.5t12.5 32t31.5 13t32 -13t13 -32t-13 -31.5t-32 -12.5t-31.5 12.5z" />
    <glyph glyph-name="semicolon" unicode=";" horiz-adv-x="261" 
d="M133.5 399.5q-12.5 12.5 -12.5 31.5t12.5 32t31.5 13t32 -13t13 -32t-13 -31.5t-32 -12.5t-31.5 12.5zM130 50h81l-91 -197h-70z" />
    <glyph glyph-name="less" unicode="&#x3c;" horiz-adv-x="546" 
d="M50 295v56l446 219v-78l-350 -169l350 -169v-78z" />
    <glyph glyph-name="equal" unicode="=" horiz-adv-x="514" 
d="M50 406h414v-64h-414v64zM50 235h414v-64h-414v64z" />
    <glyph glyph-name="greater" unicode="&#x3e;" horiz-adv-x="546" 
d="M50 154l348 169l-348 169v78l446 -219v-56l-446 -219v78z" />
    <glyph glyph-name="question" unicode="?" horiz-adv-x="510" 
d="M174 209q0 64 24 104.5t83 81.5q57 39 80 69t23 74q0 50 -40 79t-112 29q-100 0 -182 -39v71q85 36 182 36q67 0 119 -22t80.5 -62t28.5 -92q0 -51 -27.5 -93t-86.5 -82q-42 -29 -62 -49t-27.5 -43.5t-7.5 -62.5v-18h-75v19zM177 -1q-14 14 -14 34t14 34t34 14t34.5 -14
t14.5 -34t-14.5 -34t-34.5 -14t-34 14z" />
    <glyph glyph-name="at" unicode="@" horiz-adv-x="910" 
d="M240 -35q-90 41 -140 121t-50 195q0 127 52.5 225.5t150.5 153t229 54.5q180 0 279 -88.5t99 -252.5q0 -72 -19.5 -132t-58 -96t-93.5 -36q-38 0 -70 21t-41 57q-22 -38 -61 -58t-89 -20q-75 0 -121.5 46t-46.5 131q0 66 27 120.5t77.5 86t118.5 31.5q37 0 76.5 -8
t70.5 -21l-13 -240q-3 -42 16 -63.5t55 -21.5q52 0 73.5 53t21.5 150q0 279 -301 279q-107 0 -187.5 -45.5t-124 -129.5t-43.5 -196q0 -142 82.5 -219t240.5 -77q104 0 194 31v-59q-88 -33 -194 -33q-120 0 -210 41zM521 201.5q31 31.5 33 73.5l11 173q-35 14 -84 14
q-66 0 -105 -47.5t-39 -122.5q0 -60 25.5 -91t74.5 -31q53 0 84 31.5z" />
    <glyph glyph-name="A" unicode="A" horiz-adv-x="731" 
d="M329 699h73l279 -699h-80l-75 187h-322l-74 -187h-80zM504 253l-139 356l-138 -356h277z" />
    <glyph glyph-name="B" unicode="B" horiz-adv-x="641" 
d="M70 699h310q91 0 139 -47.5t48 -139.5q0 -54 -25 -93.5t-66 -58.5q115 -30 115 -165q0 -59 -25.5 -103.5t-70 -68t-98.5 -23.5h-327v699zM374 391q56 0 85.5 30.5t29.5 88.5q0 66 -29 94.5t-94 28.5h-218v-242h226zM380 66q66 0 99.5 30t33.5 101q0 69 -35 98.5
t-109 29.5h-221v-259h232z" />
    <glyph glyph-name="C" unicode="C" horiz-adv-x="716" 
d="M227.5 30q-83.5 45 -130.5 127.5t-47 191.5t47 191.5t130.5 128t189.5 45.5q145 0 240 -76v-76q-90 81 -234 81q-85 0 -152 -36t-105 -102.5t-38 -155.5t38.5 -155.5t105.5 -102.5t151 -36q75 0 134 20t109 66v-77q-89 -79 -249 -79q-106 0 -189.5 45z" />
    <glyph glyph-name="D" unicode="D" horiz-adv-x="701" 
d="M70 699h216q112 0 194.5 -42t126.5 -120t44 -184q0 -175 -100 -264t-281 -89h-200v699zM265 66q158 0 233 72.5t75 214.5q0 132 -73 206t-215 74h-137v-567h117z" />
    <glyph glyph-name="E" unicode="E" horiz-adv-x="570" 
d="M70 699h450v-66h-372v-250h279v-66h-279v-251h372v-66h-450v699z" />
    <glyph glyph-name="F" unicode="F" horiz-adv-x="550" 
d="M70 699h450v-66h-372v-250h279v-66h-279v-317h-78v699z" />
    <glyph glyph-name="G" unicode="G" horiz-adv-x="720" 
d="M227.5 30q-83.5 45 -130.5 127.5t-47 191.5t47 191.5t130.5 128t189.5 45.5q145 0 240 -76v-76q-90 81 -234 81q-85 0 -152 -36t-105 -102.5t-38 -155.5t38 -155.5t104.5 -102.5t150.5 -36q49 0 95 11.5t76 30.5v215h-147v66h225v-314q-49 -41 -111.5 -60t-141.5 -19
q-106 0 -189.5 45z" />
    <glyph glyph-name="H" unicode="H" horiz-adv-x="690" 
d="M70 699h78v-310h394v310h78v-699h-78v323h-394v-323h-78v699z" />
    <glyph glyph-name="I" unicode="I" horiz-adv-x="220" 
d="M71 699h78v-699h-78v699z" />
    <glyph glyph-name="J" unicode="J" horiz-adv-x="366" 
d="M74.5 -11q-28.5 4 -44.5 11v68q15 -6 40.5 -9.5t45.5 -3.5q107 0 107 106v538h78v-544q0 -81 -47 -125.5t-124 -44.5q-27 0 -55.5 4z" />
    <glyph glyph-name="K" unicode="K" horiz-adv-x="655" 
d="M70 699h78v-699h-78v699zM181 355l327 344h96l-327 -344l348 -355h-96z" />
    <glyph glyph-name="L" unicode="L" horiz-adv-x="545" 
d="M70 699h78v-633h372v-66h-450v699z" />
    <glyph glyph-name="M" unicode="M" horiz-adv-x="828" 
d="M70 699h80l264 -577l264 577h80v-699h-77v540l-247 -540h-40l-247 540v-540h-77v699z" />
    <glyph glyph-name="N" unicode="N" horiz-adv-x="678" 
d="M70 699h75l385 -566v566h78v-699h-75l-385 567v-567h-78v699z" />
    <glyph glyph-name="O" unicode="O" horiz-adv-x="832" 
d="M229.5 30.5q-83.5 45.5 -131.5 128.5t-48 190t48 190t131 129t187 46t187 -46t131 -129t48 -190t-48 -190t-131.5 -128.5t-186.5 -45.5t-186.5 45.5zM562 91q66 36 104 102.5t38 155.5q0 88 -37.5 154.5t-103 103t-145.5 36.5q-81 0 -147 -36t-104.5 -103t-38.5 -155
q0 -89 38 -155.5t104 -102.5t146 -36t146 36z" />
    <glyph glyph-name="P" unicode="P" horiz-adv-x="592" 
d="M70 699h259q110 0 171.5 -52t61.5 -154q0 -103 -61 -154t-172 -51h-181v-288h-78v699zM323 354q75 0 118 30.5t43 108.5q0 79 -43 109.5t-118 30.5h-175v-279h175z" />
    <glyph glyph-name="Q" unicode="Q" horiz-adv-x="820" 
d="M235.5 43q-87.5 43 -136.5 122.5t-49 184.5q0 107 48 190t131 128.5t187 45.5q103 0 186.5 -45.5t131 -128.5t47.5 -190q0 -98 -44.5 -172.5t-120.5 -111.5h174v-66h-355q-112 0 -199.5 43zM562 104.5q65 32.5 102.5 95.5t37.5 150t-38 153.5t-103 102.5t-145 36
t-145.5 -36t-103.5 -102.5t-38 -153.5q0 -88 37 -150.5t102 -95t148 -32.5q81 0 146 32.5z" />
    <glyph glyph-name="R" unicode="R" horiz-adv-x="612" 
d="M70 699h270q109 0 165.5 -51t56.5 -151q0 -76 -44.5 -129t-123.5 -67l166 -301h-81l-164 297h-167v-297h-78v699zM330 363q72 0 113 34t41 100q0 74 -40.5 105t-113.5 31h-182v-270h182z" />
    <glyph glyph-name="S" unicode="S" horiz-adv-x="555" 
d="M142 -5q-56 10 -92 27v74q94 -41 202 -41q90 0 132.5 29t42.5 87q0 41 -17.5 65t-50.5 40.5t-114 49.5q-99 40 -143.5 87.5t-44.5 120.5q0 53 28.5 94t80.5 63.5t120 22.5q55 0 99.5 -8.5t87.5 -27.5v-71q-84 37 -176 37q-80 0 -121 -29t-41 -81q0 -35 17 -60t53.5 -46
t100.5 -46q72 -28 113 -52.5t63.5 -62t22.5 -96.5q0 -89 -63 -137.5t-186 -48.5q-58 0 -114 10z" />
    <glyph glyph-name="T" unicode="T" horiz-adv-x="586" 
d="M254 633h-224v66h526v-66h-224v-633h-78v633z" />
    <glyph glyph-name="U" unicode="U" horiz-adv-x="688" 
d="M135.5 55q-70.5 70 -70.5 195v449h78v-455q0 -95 53 -142t148 -47t148 47t53 142v455h78v-449q0 -125 -70.5 -195t-208.5 -70t-208.5 70z" />
    <glyph glyph-name="V" unicode="V" horiz-adv-x="731" 
d="M50 699h82l233 -591l234 591h82l-279 -699h-73z" />
    <glyph glyph-name="W" unicode="W" horiz-adv-x="1009" 
d="M50 699h81l172 -567l172 567h62l169 -568l172 568h81l-209 -699h-76l-170 571l-169 -571h-76z" />
    <glyph glyph-name="X" unicode="X" horiz-adv-x="723" 
d="M317 358l-252 341h89l207 -281l208 281h89l-252 -341l265 -358h-89l-221 298l-220 -298h-89z" />
    <glyph glyph-name="Y" unicode="Y" horiz-adv-x="686" 
d="M304 265l-254 434h83l210 -363l211 363h82l-254 -434v-265h-78v265z" />
    <glyph glyph-name="Z" unicode="Z" horiz-adv-x="617" 
d="M50 55l408 578h-398v66h492v-56l-407 -578h422v-65h-517v55z" />
    <glyph glyph-name="bracketleft" unicode="[" horiz-adv-x="291" 
d="M50 787h201v-66h-123v-752h123v-65h-201v883z" />
    <glyph glyph-name="backslash" unicode="\" horiz-adv-x="461" 
d="M50 714h76l285 -714h-76z" />
    <glyph glyph-name="bracketright" unicode="]" horiz-adv-x="291" 
d="M40 -31h122v752h-122v66h201v-883h-201v65z" />
    <glyph glyph-name="asciicircum" unicode="^" horiz-adv-x="533" 
d="M236 719h60l187 -325h-75l-142 250l-142 -250h-74z" />
    <glyph glyph-name="underscore" unicode="_" horiz-adv-x="487" 
d="M50 0h387v-64h-387v64z" />
    <glyph glyph-name="grave" unicode="`" horiz-adv-x="249" 
d="M50 741h81l68 -170h-69z" />
    <glyph glyph-name="a" unicode="a" horiz-adv-x="562" 
d="M100.5 28.5q-50.5 43.5 -50.5 119.5q0 79 49 121.5t142 42.5q104 0 179 -43v36q0 65 -37 96.5t-117 31.5q-85 0 -157 -32v65q30 13 76 21t88 8q114 0 169 -51.5t55 -142.5v-301h-72v62q-63 -77 -187 -77q-87 0 -137.5 43.5zM354.5 69.5q43.5 21.5 65.5 60.5v77
q-39 23 -77.5 33.5t-86.5 10.5q-68 0 -98.5 -25.5t-30.5 -77.5q0 -100 130 -100q54 0 97.5 21.5z" />
    <glyph glyph-name="b" unicode="b" horiz-adv-x="656" 
d="M234.5 9.5q-51.5 24.5 -89.5 74.5v-84h-75v739h77v-340q31 47 87 71.5t121 24.5q71 0 128.5 -32t90 -90.5t32.5 -133.5q0 -76 -33 -134t-90 -89t-128 -31q-69 0 -120.5 24.5zM435.5 70q43.5 24 68.5 68t25 101t-25 101t-68.5 68.5t-96.5 24.5q-68 0 -120.5 -36t-71.5 -98
v-120q20 -62 71.5 -97.5t120.5 -35.5q53 0 96.5 24z" />
    <glyph glyph-name="c" unicode="c" horiz-adv-x="547" 
d="M178.5 15.5q-60.5 30.5 -94.5 88t-34 135.5q0 77 34.5 135.5t95.5 89.5t138 31q55 0 97 -10t75 -32v-65q-63 45 -165 45q-88 0 -143 -51t-55 -143t55 -142.5t140 -50.5q53 0 95 12t80 37v-65q-35 -24 -78.5 -34.5t-103.5 -10.5q-76 0 -136.5 30.5z" />
    <glyph glyph-name="d" unicode="d" horiz-adv-x="656" 
d="M173 16q-57 31 -90 89t-33 134q0 75 32.5 133.5t90 90.5t128.5 32q69 0 122.5 -24.5t85.5 -71.5v340h77v-739h-75v84q-38 -50 -89.5 -74.5t-120.5 -24.5q-71 0 -128 31zM437.5 81.5q51.5 35.5 71.5 97.5v120q-19 62 -70.5 98t-121.5 36q-53 0 -96.5 -24.5t-68.5 -68.5
t-25 -101t25 -101t68.5 -68t96.5 -24q69 0 120.5 35.5z" />
    <glyph glyph-name="e" unicode="e" horiz-adv-x="608" 
d="M123.5 52q-73.5 67 -73.5 187q0 118 66 187t188 69q82 0 139 -31.5t86 -86.5t29 -125v-42h-436q4 -82 60.5 -123t153.5 -41q47 0 92.5 8.5t81.5 23.5v-65q-30 -12 -81.5 -20t-100.5 -8q-131 0 -204.5 67zM486 265q-2 78 -48 123t-135 45q-87 0 -133 -46.5t-48 -121.5h364
z" />
    <glyph glyph-name="f" unicode="f" horiz-adv-x="343" 
d="M105 420h-75v60h75v106q0 78 42.5 118t114.5 40q38 0 71 -10v-65q-28 13 -58 13q-48 0 -70.5 -24.5t-22.5 -75.5v-102h122v-60h-122v-420h-77v420z" />
    <glyph glyph-name="g" unicode="g" horiz-adv-x="656" 
d="M224 -222q-46 8 -78 22v65q76 -34 172 -34q98 0 144.5 44.5t46.5 134.5v71q-65 -96 -206 -96q-71 0 -129 31.5t-91 89.5t-33 133q0 76 33 134t90 90t128 32q74 0 123 -22.5t87 -73.5v81h75v-460q0 -122 -66 -186t-202 -64q-48 0 -94 8zM439 82q51 36 70 99v119
q-20 63 -71 98t-121 35q-53 0 -96.5 -24.5t-68.5 -68.5t-25 -101q0 -58 25 -101.5t68.5 -67.5t96.5 -24q71 0 122 36z" />
    <glyph glyph-name="h" unicode="h" horiz-adv-x="591" 
d="M70 739h77v-329q69 85 191 85q95 0 141.5 -50t46.5 -134v-311h-77v304q0 62 -30 95.5t-96 33.5q-111 0 -176 -100v-333h-77v739z" />
    <glyph glyph-name="i" unicode="i" horiz-adv-x="237" 
d="M84 598q-14 14 -14 34t14 34t34 14t34.5 -14t14.5 -34t-14.5 -34t-34.5 -14t-34 14zM80 480h77v-480h-77v480z" />
    <glyph glyph-name="j" unicode="j" horiz-adv-x="243" 
d="M90 598q-14 14 -14 34t14 34t34 14t34.5 -14t14.5 -34t-14.5 -34t-34.5 -14t-34 14zM-60 -222v65q26 -13 58 -13q48 0 68 23t20 74v553h77v-553q0 -79 -41 -118.5t-113 -39.5q-42 0 -69 9z" />
    <glyph glyph-name="k" unicode="k" horiz-adv-x="550" 
d="M70 739h77v-739h-77v739zM164 242l235 238h98l-236 -238l259 -242h-98z" />
    <glyph glyph-name="l" unicode="l" horiz-adv-x="217" 
d="M70 739h77v-739h-77v739z" />
    <glyph glyph-name="m" unicode="m" horiz-adv-x="863" 
d="M70 480h74v-75q69 90 171 90q60 0 93.5 -21t48.5 -63q32 43 79.5 63.5t97.5 20.5q86 0 125 -44t39 -130v-321h-76v312q0 67 -23.5 94t-83.5 27q-86 0 -142 -77q3 -14 3 -46v-310h-75v310q0 67 -22 95t-82 28q-86 0 -151 -96v-337h-76v480z" />
    <glyph glyph-name="n" unicode="n" horiz-adv-x="591" 
d="M70 480h75v-72q35 45 85.5 66t107.5 21q95 0 141.5 -50t46.5 -134v-311h-77v304q0 62 -30 95.5t-96 33.5q-111 0 -176 -100v-333h-77v480z" />
    <glyph glyph-name="o" unicode="o" horiz-adv-x="632" 
d="M177.5 16q-60.5 31 -94 88.5t-33.5 134.5q0 76 34 134t94.5 90t137.5 32t137.5 -32t94.5 -90t34 -134q0 -77 -33.5 -134.5t-94 -88.5t-138.5 -31t-138.5 31zM453.5 98.5q51.5 52.5 51.5 140.5q0 89 -51.5 141.5t-137.5 52.5t-137.5 -52.5t-51.5 -141.5q0 -88 51.5 -140.5
t137.5 -52.5t137.5 52.5z" />
    <glyph glyph-name="p" unicode="p" horiz-adv-x="656" 
d="M70 480h75v-83q71 98 210 98q71 0 128 -32t90 -90t33 -134q0 -75 -32.5 -133t-90 -89.5t-128.5 -31.5q-65 0 -121 24.5t-87 71.5v-300h-77v699zM436.5 70q43.5 24 68 67.5t24.5 101.5q0 57 -24.5 101.5t-68 68.5t-97.5 24q-68 0 -119.5 -35.5t-72.5 -97.5v-119
q19 -61 71.5 -98t120.5 -37q54 0 97.5 24z" />
    <glyph glyph-name="q" unicode="q" horiz-adv-x="656" 
d="M509 81q-31 -47 -87 -71.5t-121 -24.5q-71 0 -128.5 31.5t-90 89.5t-32.5 133q0 76 33 134t90 90t128 32q139 0 210 -98v83h75v-699h-77v300zM437.5 83q52.5 37 71.5 98v119q-21 62 -72.5 97.5t-119.5 35.5q-54 0 -97.5 -24t-68 -68.5t-24.5 -101.5q0 -58 24.5 -101.5
t68 -67.5t97.5 -24q68 0 120.5 37z" />
    <glyph glyph-name="r" unicode="r" horiz-adv-x="392" 
d="M70 480h75v-94q58 94 217 94v-62q-174 0 -215 -115v-303h-77v480z" />
    <glyph glyph-name="s" unicode="s" horiz-adv-x="479" 
d="M136 -1.5q-54 13.5 -84 33.5v65q38 -23 87.5 -37t95.5 -14q62 0 89.5 17.5t27.5 52.5q0 27 -12 42.5t-40 27.5t-87 28q-58 16 -92.5 33.5t-52.5 44.5t-18 69q0 65 52.5 99.5t139.5 34.5q47 0 88.5 -8.5t69.5 -23.5v-65q-29 16 -70 25.5t-85 9.5q-58 0 -88 -17t-30 -55
q0 -26 10.5 -40t39 -25.5t91.5 -28.5q90 -25 125.5 -58.5t35.5 -92.5q0 -61 -47.5 -96t-144.5 -35q-47 0 -101 13.5z" />
    <glyph glyph-name="t" unicode="t" horiz-adv-x="365" 
d="M142.5 25q-37.5 40 -37.5 114v281h-75v60h75v144h77v-144h121v-60h-121v-283q0 -50 20 -70.5t73 -20.5q26 0 55 12v-63q-33 -10 -82 -10q-68 0 -105.5 40z" />
    <glyph glyph-name="u" unicode="u" horiz-adv-x="591" 
d="M116.5 37q-51.5 52 -51.5 139v304h77v-308q0 -126 131 -126q55 0 96.5 24t74.5 76v334h77v-480h-75v72q-65 -87 -182 -87q-96 0 -147.5 52z" />
    <glyph glyph-name="v" unicode="v" horiz-adv-x="569" 
d="M50 480h82l152 -385l152 385h83l-195 -480h-80z" />
    <glyph glyph-name="w" unicode="w" horiz-adv-x="806" 
d="M50 480h80l119 -387l117 387h73l118 -387l118 387h81l-154 -480h-79l-120 391l-120 -391h-80z" />
    <glyph glyph-name="x" unicode="x" horiz-adv-x="605" 
d="M257 254l-185 226h91l139 -171l140 171h91l-186 -226l208 -254h-89l-164 199l-163 -199h-89z" />
    <glyph glyph-name="y" unicode="y" horiz-adv-x="575" 
d="M78 -189v62q11 -4 31.5 -7t34.5 -3q34 0 55 18t38 60l26 62l-213 477h82l172 -388l159 388h82l-222 -544q-28 -69 -65.5 -101.5t-97.5 -32.5q-46 0 -82 9z" />
    <glyph glyph-name="z" unicode="z" horiz-adv-x="498" 
d="M50 52l291 368h-286v60h380v-52l-291 -368h304v-60h-398v52z" />
    <glyph glyph-name="braceleft" unicode="{" horiz-adv-x="343" 
d="M138 -7v238q0 82 -71 82h-17v65h17q71 0 71 82v238q0 89 76 89h79v-66h-38q-22 0 -30.5 -10.5t-8.5 -37.5v-221q0 -85 -65 -106v-1q65 -21 65 -106v-221q0 -27 8.5 -37.5t30.5 -10.5h38v-66h-79q-76 0 -76 89z" />
    <glyph glyph-name="bar" unicode="|" horiz-adv-x="178" 
d="M50 812h78v-956h-78v956z" />
    <glyph glyph-name="braceright" unicode="}" horiz-adv-x="343" 
d="M50 -30h38q22 0 30.5 10.5t8.5 37.5v221q0 85 65 106v1q-65 21 -65 106v221q0 27 -8.5 37.5t-30.5 10.5h-38v66h79q76 0 76 -89v-238q0 -82 71 -82h17v-65h-17q-71 0 -71 -82v-238q0 -89 -76 -89h-79v66z" />
    <glyph glyph-name="asciitilde" unicode="~" horiz-adv-x="559" 
d="M50 366q13 25 43 39t68 14q31 0 59 -8t65 -24q39 -16 62.5 -23t49.5 -7q35 0 62.5 14t49.5 48v-78q-14 -25 -44.5 -39t-67.5 -14q-29 0 -53.5 7.5t-65.5 23.5q-35 15 -61.5 23t-55.5 8q-35 0 -62 -14t-49 -48v78z" />
    <glyph glyph-name="uni00A0" unicode="&#xa0;" horiz-adv-x="380" 
 />
    <glyph glyph-name="exclamdown" unicode="&#xa1;" horiz-adv-x="197" 
d="M64 468q-14 14 -14 34t14 34t34 14t34.5 -14t14.5 -34t-14.5 -34t-34.5 -14t-34 14zM61 343h75v-507h-75v507z" />
    <glyph glyph-name="cent" unicode="&#xa2;" horiz-adv-x="547" 
d="M279 -13q-103 11 -166 77.5t-63 174.5q0 106 63 174.5t166 79.5v87h71v-86q87 -5 140 -41v-65q-56 39 -140 44v-385q84 6 147 48v-65q-30 -20 -65.5 -30.5t-81.5 -13.5v-87h-71v88zM279 429q-70 -12 -111 -61t-41 -129t41.5 -128.5t110.5 -61.5v380z" />
    <glyph glyph-name="sterling" unicode="&#xa3;" horiz-adv-x="490" 
d="M50 60h82v292h-75v60h75v129q0 83 52.5 128t130.5 45q37 0 72 -10v-63q-22 10 -55 10q-60 0 -89.5 -27.5t-29.5 -83.5v-128h186v-60h-186v-292h227v-60h-390v60z" />
    <glyph glyph-name="currency" unicode="&#xa4;" horiz-adv-x="583" 
d="M50 102l85 64q-35 46 -35 106t35 106l-85 64l34 43l87 -69q50 44 120 44t120 -44l88 69l34 -43l-85 -64q35 -48 35 -106t-35 -106l85 -64l-34 -43l-88 67q-53 -43 -119 -43q-67 0 -120 43l-88 -67zM356 159.5q30 17.5 47 47.5t17 65t-17.5 65t-47 47.5t-64.5 17.5
t-64.5 -17.5t-46.5 -47.5t-17 -65t17 -65t46.5 -47.5t64.5 -17.5t65 17.5z" />
    <glyph glyph-name="yen" unicode="&#xa5;" horiz-adv-x="688" 
d="M305 115h-140v54h140v83h-140v53h116l-230 394h83l210 -363l211 363h82l-231 -394h118v-53h-141v-83h141v-54h-141v-115h-78v115z" />
    <glyph glyph-name="brokenbar" unicode="&#xa6;" horiz-adv-x="180" 
d="M50 812h80v-376h-80v376zM50 232h80v-376h-80v376z" />
    <glyph glyph-name="section" unicode="&#xa7;" horiz-adv-x="555" 
d="M142 -160q-56 10 -92 27v74q94 -41 202 -41q171 0 171 116q0 41 -17.5 66.5t-53 44.5t-107.5 45q-99 36 -143.5 84.5t-44.5 122.5q0 41 19 74q-19 34 -19 81q0 54 28.5 94.5t80.5 63t120 22.5q55 0 99.5 -8.5t87.5 -27.5v-72q-44 19 -86.5 28t-95.5 9q-73 0 -112.5 -29.5
t-39.5 -81.5q0 -34 16 -58.5t51 -45.5t100 -48q75 -31 114.5 -54.5t62 -60t22.5 -94.5q0 -42 -17 -76q17 -34 17 -79q0 -89 -63 -137.5t-186 -48.5q-58 0 -114 10zM443 176q0 39 -19 65.5t-55 45.5t-100 43q-48 17 -85 38t-55 43q-7 -23 -7 -40q0 -50 37.5 -83.5
t124.5 -65.5q57 -21 95 -41t59 -44q5 18 5 39z" />
    <glyph glyph-name="dieresis" unicode="&#xa8;" horiz-adv-x="416" 
d="M65 607.5q-15 14.5 -15 34.5t15 34.5t35 14.5t34.5 -14.5t14.5 -34.5t-14.5 -34.5t-34.5 -14.5t-35 14.5zM282 607.5q-15 14.5 -15 34.5t15 34.5t35 14.5t34.5 -14.5t14.5 -34.5t-14.5 -34.5t-34.5 -14.5t-35 14.5z" />
    <glyph glyph-name="copyright" unicode="&#xa9;" horiz-adv-x="829" 
d="M229.5 31q-83.5 46 -131.5 128.5t-48 189.5t48 190t131.5 129t185.5 46t185 -46t131 -129t48 -190t-48 -189.5t-131 -128.5t-185 -46t-185.5 46zM563.5 88.5q66.5 35.5 105 103t38.5 157.5t-38 157t-104.5 103t-149.5 36t-150 -36t-105 -103t-38 -157q0 -91 38.5 -158
t105.5 -102.5t149 -35.5t148.5 35.5zM289.5 137q-54.5 29 -85.5 83t-31 128q0 73 31.5 127.5t86.5 84t124 29.5q51 0 91 -9.5t71 -31.5v-61q-60 43 -156 43q-82 0 -131 -47.5t-49 -134.5t48.5 -134t128.5 -47q51 0 90.5 11t75.5 35v-60q-66 -45 -172 -45q-68 0 -122.5 29z
" />
    <glyph glyph-name="ordfeminine" unicode="&#xaa;" horiz-adv-x="422" 
d="M87.5 379.5q-37.5 30.5 -37.5 83.5q0 56 37 86.5t102 30.5q70 0 123 -30v30q0 45 -25.5 64.5t-82.5 19.5q-63 0 -112 -22v50q22 9 54.5 15.5t63.5 6.5q82 0 122 -36t40 -101v-217h-56v37q-22 -24 -54 -36t-77 -12q-60 0 -97.5 30.5zM267 411.5q30 14.5 45 41.5v49
q-51 30 -115 30q-45 0 -65.5 -17t-20.5 -52q0 -66 86 -66q40 0 70 14.5z" />
    <glyph glyph-name="guillemotleft" unicode="&#xab;" horiz-adv-x="571" 
d="M50 309v27l227 189l38 -49l-184 -153l184 -153l-38 -49zM256 309v27l227 189l38 -49l-184 -153l184 -153l-38 -49z" />
    <glyph glyph-name="logicalnot" unicode="&#xac;" horiz-adv-x="434" 
d="M320 263h-270v64h334v-190h-64v126z" />
    <glyph glyph-name="uni00AD" unicode="&#xad;" horiz-adv-x="407" 
d="M50 328h307v-65h-307v65z" />
    <glyph glyph-name="registered" unicode="&#xae;" horiz-adv-x="829" 
d="M229.5 31q-83.5 46 -131.5 128.5t-48 189.5t48 190t131.5 129t185.5 46t185 -46t131 -129t48 -190t-48 -189.5t-131 -128.5t-185 -46t-185.5 46zM563.5 88.5q66.5 35.5 105 103t38.5 157.5t-38 157t-104.5 103t-149.5 36t-150 -36t-105 -103t-38 -157q0 -91 38.5 -158
t105.5 -102.5t149 -35.5t148.5 35.5zM258 594h185q158 0 158 -136q0 -55 -33 -92.5t-96 -44.5l107 -210h-64l-106 208h-90v-208h-61v483zM433 370q52 0 79.5 20t27.5 67q0 37 -12.5 55t-34.5 23.5t-60 5.5h-114v-171h114z" />
    <glyph glyph-name="macron" unicode="&#xaf;" horiz-adv-x="400" 
d="M50 668h300v-54h-300v54z" />
    <glyph glyph-name="degree" unicode="&#xb0;" horiz-adv-x="388" 
d="M122 458.5q-33 19.5 -52.5 52.5t-19.5 72t19.5 72t52.5 52.5t72 19.5t72 -19.5t52.5 -52.5t19.5 -72t-19.5 -72t-52.5 -52.5t-72 -19.5t-72 19.5zM254.5 522q25.5 25 25.5 61t-25.5 61.5t-61.5 25.5t-61 -25.5t-25 -61.5t25 -61t61 -25t61.5 25z" />
    <glyph glyph-name="plusminus" unicode="&#xb1;" horiz-adv-x="407" 
d="M171 264h-121v64h121v122h64v-122h122v-64h-122v-122h-64v122zM50 64h307v-64h-307v64z" />
    <glyph glyph-name="uni00B2" unicode="&#xb2;" horiz-adv-x="341" 
d="M50 411l81 72l18 16q45 39 62 60t17 48q0 51 -63 51q-23 0 -51 -7.5t-48 -21.5v53q18 12 47.5 19.5t54.5 7.5q58 0 89 -28t31 -72q0 -27 -10 -47.5t-27 -37.5t-52 -47l-68 -59h160v-48h-241v41z" />
    <glyph glyph-name="uni00B3" unicode="&#xb3;" horiz-adv-x="343" 
d="M50 377v49q21 -10 48 -15t53 -5q37 0 59 13t22 40q0 29 -19 41.5t-63 12.5h-43v46h42q36 0 54.5 13.5t18.5 39.5q0 50 -72 50q-50 0 -92 -27v48q42 26 106 26q58 0 89 -24.5t31 -67.5q0 -61 -61 -80q35 -6 52.5 -27t17.5 -54q0 -45 -35 -70.5t-97 -25.5q-70 0 -111 17z
" />
    <glyph glyph-name="acute" unicode="&#xb4;" horiz-adv-x="249" 
d="M118 763h81l-80 -170h-69z" />
    <glyph glyph-name="paragraph" unicode="&#xb6;" horiz-adv-x="725" 
d="M363 271h-62q-71 0 -127.5 27.5t-90 82.5t-33.5 133q0 121 68.5 184.5t184.5 63.5h372v-896h-80v830h-154v-830h-78v405z" />
    <glyph glyph-name="periodcentered" unicode="&#xb7;" horiz-adv-x="189" 
d="M62.5 262.5q-12.5 12.5 -12.5 31.5t12.5 32t31.5 13t32 -13t13 -32t-13 -31.5t-32 -12.5t-31.5 12.5z" />
    <glyph glyph-name="cedilla" unicode="&#xb8;" horiz-adv-x="297" 
d="M81.5 -245q-20.5 3 -31.5 7v48q10 -4 26 -7t31 -3q68 0 68 50q0 29 -23.5 43t-79.5 14l35 93h71l-24 -60q93 -12 93 -92q0 -42 -33.5 -69t-90.5 -27q-21 0 -41.5 3z" />
    <glyph glyph-name="uni00B9" unicode="&#xb9;" horiz-adv-x="230" 
d="M140 636l-90 -66v59l94 70h56v-329h-60v266z" />
    <glyph glyph-name="ordmasculine" unicode="&#xba;" horiz-adv-x="481" 
d="M103 398q-53 50 -53 133q0 82 53 132.5t138 50.5q55 0 98.5 -23t67.5 -64.5t24 -95.5q0 -83 -53 -133t-137 -50q-85 0 -138 50zM331.5 437.5q34.5 35.5 34.5 93.5q0 59 -34.5 94t-90.5 35q-57 0 -91.5 -35t-34.5 -94q0 -58 35 -93.5t91 -35.5t90.5 35.5z" />
    <glyph glyph-name="guillemotright" unicode="&#xbb;" horiz-adv-x="571" 
d="M50 170l183 153l-183 153l38 49l227 -189v-27l-227 -188zM256 170l183 153l-183 153l38 49l227 -189v-27l-227 -188z" />
    <glyph glyph-name="onequarter" unicode="&#xbc;" horiz-adv-x="698" 
d="M140 636l-90 -66v59l94 70h56v-329h-60v266zM499 699h79l-387 -699h-79zM540 77h-163v44l156 208h67v-206h48v-46h-48v-77h-60v77zM547 123v146l-112 -146h112z" />
    <glyph glyph-name="onehalf" unicode="&#xbd;" horiz-adv-x="727" 
d="M140 636l-90 -66v59l94 70h56v-329h-60v266zM499 699h79l-387 -699h-79zM433 41l82 72q57 49 77 72.5t20 52.5q0 25 -16 38.5t-47 13.5q-23 0 -51.5 -7.5t-47.5 -21.5v54q18 12 47 19t55 7q58 0 88.5 -28t30.5 -72q0 -27 -10 -47.5t-27 -38t-52 -48.5l-67 -59h162v-48
h-244v41z" />
    <glyph glyph-name="threequarters" unicode="&#xbe;" horiz-adv-x="726" 
d="M50 377v49q21 -10 48 -15t53 -5q37 0 59 13t22 40q0 29 -19 41.5t-63 12.5h-43v46h42q36 0 54.5 13.5t18.5 39.5q0 50 -72 50q-50 0 -92 -27v48q42 26 106 26q58 0 89 -24.5t31 -67.5q0 -61 -61 -80q35 -6 52.5 -27t17.5 -54q0 -45 -35 -70.5t-97 -25.5q-70 0 -111 17z
M527 699h79l-387 -699h-79zM568 77h-163v44l156 208h67v-206h48v-46h-48v-77h-60v77zM575 123v146l-112 -146h112z" />
    <glyph glyph-name="questiondown" unicode="&#xbf;" horiz-adv-x="510" 
d="M264.5 468q-14.5 14 -14.5 34t14.5 34t34.5 14t34 -14t14 -34t-14 -34t-34 -14t-34.5 14zM159.5 -157q-51.5 22 -80 62t-28.5 92t27 93.5t86 81.5q42 29 62 49t27.5 43.5t7.5 62.5v18h75v-19q0 -64 -24 -104.5t-83 -81.5q-56 -39 -79 -69t-23 -74q0 -50 39.5 -79
t111.5 -29q100 0 182 39v-71q-85 -36 -182 -36q-67 0 -118.5 22z" />
    <glyph glyph-name="Agrave" unicode="&#xc0;" horiz-adv-x="731" 
d="M247 912h81l68 -170h-69zM329 699h73l279 -699h-80l-75 187h-322l-74 -187h-80zM504 253l-139 356l-138 -356h277z" />
    <glyph glyph-name="Aacute" unicode="&#xc1;" horiz-adv-x="731" 
d="M404 912h81l-80 -170h-69zM329 699h73l279 -699h-80l-75 187h-322l-74 -187h-80zM504 253l-139 356l-138 -356h277z" />
    <glyph glyph-name="Acircumflex" unicode="&#xc2;" horiz-adv-x="731" 
d="M332 903h67l137 -161h-78l-92 114l-92 -114h-79zM329 699h73l279 -699h-80l-75 187h-322l-74 -187h-80zM504 253l-139 356l-138 -356h277z" />
    <glyph glyph-name="Atilde" unicode="&#xc3;" horiz-adv-x="731" 
d="M180 811q28 43 95 43q22 0 42 -6t51 -19q26 -12 46 -18.5t42 -6.5q29 0 52.5 12t42.5 40v-69q-28 -42 -95 -42q-25 0 -47 6.5t-50 19.5q-28 12 -45.5 18t-38.5 6q-28 0 -51 -12t-44 -41v69zM329 699h73l279 -699h-80l-75 187h-322l-74 -187h-80zM504 253l-139 356
l-138 -356h277z" />
    <glyph glyph-name="Adieresis" unicode="&#xc4;" horiz-adv-x="731" 
d="M222 756.5q-15 14.5 -15 34.5t15 34.5t35 14.5t34.5 -14.5t14.5 -34.5t-14.5 -34.5t-34.5 -14.5t-35 14.5zM439 756.5q-15 14.5 -15 34.5t15 34.5t35 14.5t34.5 -14.5t14.5 -34.5t-14.5 -34.5t-34.5 -14.5t-35 14.5zM329 699h73l279 -699h-80l-75 187h-322l-74 -187h-80z
M504 253l-139 356l-138 -356h277z" />
    <glyph glyph-name="Aring" unicode="&#xc5;" horiz-adv-x="731" 
d="M681 0h-80l-75 187h-322l-74 -187h-80l265 664q-27 14 -42.5 39.5t-15.5 56.5q0 44 31.5 76t76.5 32q44 0 76 -32t32 -76q0 -30 -15.5 -55.5t-41.5 -39.5zM324.5 800q-16.5 -17 -16.5 -40t17 -40.5t40 -17.5t40 17.5t17 40.5t-17 40t-40 17q-24 0 -40.5 -17zM504 253
l-139 356l-138 -356h277z" />
    <glyph glyph-name="AE" unicode="&#xc6;" horiz-adv-x="920" 
d="M406 699h464v-66h-328v-250h236v-66h-236v-251h328v-66h-406v187h-239l-95 -187h-80zM464 253v380h-13l-192 -380h205z" />
    <glyph glyph-name="Ccedilla" unicode="&#xc7;" horiz-adv-x="716" 
d="M460 -14l-19 -46q93 -12 93 -92q0 -42 -33.5 -69t-90.5 -27q-21 0 -41.5 3t-31.5 7v48q10 -4 26 -7t31 -3q68 0 68 50q0 29 -23.5 43t-79.5 14l30 79q-99 6 -176 52.5t-120 126.5t-43 184q0 109 47 191.5t130.5 128t189.5 45.5q145 0 240 -76v-76q-90 81 -234 81
q-85 0 -152 -36t-105 -102.5t-38 -155.5t38.5 -155.5t105.5 -102.5t151 -36q75 0 134 20t109 66v-77q-77 -68 -206 -78z" />
    <glyph glyph-name="Egrave" unicode="&#xc8;" horiz-adv-x="570" 
d="M197 912h81l68 -170h-69zM70 699h450v-66h-372v-250h279v-66h-279v-251h372v-66h-450v699z" />
    <glyph glyph-name="Eacute" unicode="&#xc9;" horiz-adv-x="570" 
d="M317 912h81l-80 -170h-69zM70 699h450v-66h-372v-250h279v-66h-279v-251h372v-66h-450v699z" />
    <glyph glyph-name="Ecircumflex" unicode="&#xca;" horiz-adv-x="570" 
d="M257 904h67l137 -161h-78l-92 114l-92 -114h-79zM70 699h450v-66h-372v-250h279v-66h-279v-251h372v-66h-450v699z" />
    <glyph glyph-name="Edieresis" unicode="&#xcb;" horiz-adv-x="570" 
d="M158 754.5q-15 14.5 -15 34.5t15 34.5t35 14.5t34.5 -14.5t14.5 -34.5t-14.5 -34.5t-34.5 -14.5t-35 14.5zM375 754.5q-15 14.5 -15 34.5t15 34.5t35 14.5t34.5 -14.5t14.5 -34.5t-14.5 -34.5t-34.5 -14.5t-35 14.5zM70 699h450v-66h-372v-250h279v-66h-279v-251h372v-66
h-450v699z" />
    <glyph glyph-name="Igrave" unicode="&#xcc;" horiz-adv-x="220" 
d="M-4 912h81l68 -170h-69zM71 699h78v-699h-78v699z" />
    <glyph glyph-name="Iacute" unicode="&#xcd;" horiz-adv-x="220" 
d="M144 912h81l-80 -170h-69zM71 699h78v-699h-78v699z" />
    <glyph glyph-name="Icircumflex" unicode="&#xce;" horiz-adv-x="220" 
d="M76 903h67l137 -161h-78l-92 114l-92 -114h-79zM71 699h78v-699h-78v699z" />
    <glyph glyph-name="Idieresis" unicode="&#xcf;" horiz-adv-x="220" 
d="M-34 756.5q-15 14.5 -15 34.5t15 34.5t35 14.5t34.5 -14.5t14.5 -34.5t-14.5 -34.5t-34.5 -14.5t-35 14.5zM183 756.5q-15 14.5 -15 34.5t15 34.5t35 14.5t34.5 -14.5t14.5 -34.5t-14.5 -34.5t-34.5 -14.5t-35 14.5zM71 699h78v-699h-78v699z" />
    <glyph glyph-name="Eth" unicode="&#xd0;" horiz-adv-x="730" 
d="M99 319h-69v60h69v320h217q112 0 194 -42t126 -120t44 -184q0 -175 -100 -264t-281 -89h-200v319zM295 71q153 0 230 71.5t77 210.5q0 130 -75.5 202.5t-212.5 72.5h-136v-249h197v-60h-197v-248h117z" />
    <glyph glyph-name="Ntilde" unicode="&#xd1;" horiz-adv-x="678" 
d="M169 811q28 43 95 43q22 0 42 -6t51 -19q26 -12 46 -18.5t42 -6.5q29 0 52.5 12t42.5 40v-69q-28 -42 -95 -42q-25 0 -47 6.5t-50 19.5q-28 12 -45.5 18t-38.5 6q-28 0 -51 -12t-44 -41v69zM70 699h75l385 -566v566h78v-699h-75l-385 567v-567h-78v699z" />
    <glyph glyph-name="Ograve" unicode="&#xd2;" horiz-adv-x="832" 
d="M314 912h81l68 -170h-69zM229.5 30.5q-83.5 45.5 -131.5 128.5t-48 190t48 190t131 129t187 46t187 -46t131 -129t48 -190t-48 -190t-131.5 -128.5t-186.5 -45.5t-186.5 45.5zM562 91q66 36 104 102.5t38 155.5q0 88 -37.5 154.5t-103 103t-145.5 36.5q-81 0 -147 -36
t-104.5 -103t-38.5 -155q0 -89 38 -155.5t104 -102.5t146 -36t146 36z" />
    <glyph glyph-name="Oacute" unicode="&#xd3;" horiz-adv-x="832" 
d="M449 912h81l-80 -170h-69zM229.5 30.5q-83.5 45.5 -131.5 128.5t-48 190t48 190t131 129t187 46t187 -46t131 -129t48 -190t-48 -190t-131.5 -128.5t-186.5 -45.5t-186.5 45.5zM562 91q66 36 104 102.5t38 155.5q0 88 -37.5 154.5t-103 103t-145.5 36.5q-81 0 -147 -36
t-104.5 -103t-38.5 -155q0 -89 38 -155.5t104 -102.5t146 -36t146 36z" />
    <glyph glyph-name="Ocircumflex" unicode="&#xd4;" horiz-adv-x="832" 
d="M383 903h67l137 -161h-78l-92 114l-92 -114h-79zM229.5 30.5q-83.5 45.5 -131.5 128.5t-48 190t48 190t131 129t187 46t187 -46t131 -129t48 -190t-48 -190t-131.5 -128.5t-186.5 -45.5t-186.5 45.5zM562 91q66 36 104 102.5t38 155.5q0 88 -37.5 154.5t-103 103
t-145.5 36.5q-81 0 -147 -36t-104.5 -103t-38.5 -155q0 -89 38 -155.5t104 -102.5t146 -36t146 36z" />
    <glyph glyph-name="Otilde" unicode="&#xd5;" horiz-adv-x="832" 
d="M231 811q28 43 95 43q22 0 42 -6t51 -19q26 -12 46 -18.5t42 -6.5q29 0 52.5 12t42.5 40v-69q-28 -42 -95 -42q-25 0 -47 6.5t-50 19.5q-28 12 -45.5 18t-38.5 6q-28 0 -51 -12t-44 -41v69zM229.5 30.5q-83.5 45.5 -131.5 128.5t-48 190t48 190t131 129t187 46t187 -46
t131 -129t48 -190t-48 -190t-131.5 -128.5t-186.5 -45.5t-186.5 45.5zM562 91q66 36 104 102.5t38 155.5q0 88 -37.5 154.5t-103 103t-145.5 36.5q-81 0 -147 -36t-104.5 -103t-38.5 -155q0 -89 38 -155.5t104 -102.5t146 -36t146 36z" />
    <glyph glyph-name="Odieresis" unicode="&#xd6;" horiz-adv-x="832" 
d="M273 756.5q-15 14.5 -15 34.5t15 34.5t35 14.5t34.5 -14.5t14.5 -34.5t-14.5 -34.5t-34.5 -14.5t-35 14.5zM490 756.5q-15 14.5 -15 34.5t15 34.5t35 14.5t34.5 -14.5t14.5 -34.5t-14.5 -34.5t-34.5 -14.5t-35 14.5zM229.5 30.5q-83.5 45.5 -131.5 128.5t-48 190t48 190
t131 129t187 46t187 -46t131 -129t48 -190t-48 -190t-131.5 -128.5t-186.5 -45.5t-186.5 45.5zM562 91q66 36 104 102.5t38 155.5q0 88 -37.5 154.5t-103 103t-145.5 36.5q-81 0 -147 -36t-104.5 -103t-38.5 -155q0 -89 38 -155.5t104 -102.5t146 -36t146 36z" />
    <glyph glyph-name="multiply" unicode="&#xd7;" horiz-adv-x="362" 
d="M51 212l86 86l-87 87l44 44l87 -87l87 88l44 -45l-87 -87l86 -86l-44 -44l-86 86l-86 -86z" />
    <glyph glyph-name="Oslash" unicode="&#xd8;" horiz-adv-x="832" 
d="M250 20q-93 43 -146.5 129t-53.5 200q0 107 48 190t131 129t187 46q54 0 107 -14l34 84h76l-44 -109q90 -44 141.5 -129t51.5 -197q0 -107 -48 -190t-131.5 -128.5t-186.5 -45.5q-52 0 -100 12l-33 -83h-76zM496 633q-36 10 -80 10q-81 -1 -146.5 -37t-103.5 -102.5
t-38 -154.5q0 -91 40 -159t109 -103zM562 91q66 36 104 102.5t38 155.5q0 88 -38 155t-104 103l-219 -544q37 -8 73 -8q80 0 146 36z" />
    <glyph glyph-name="Ugrave" unicode="&#xd9;" horiz-adv-x="688" 
d="M236 912h81l68 -170h-69zM135.5 55q-70.5 70 -70.5 195v449h78v-455q0 -95 53 -142t148 -47t148 47t53 142v455h78v-449q0 -125 -70.5 -195t-208.5 -70t-208.5 70z" />
    <glyph glyph-name="Uacute" unicode="&#xda;" horiz-adv-x="688" 
d="M370 912h81l-80 -170h-69zM135.5 55q-70.5 70 -70.5 195v449h78v-455q0 -95 53 -142t148 -47t148 47t53 142v455h78v-449q0 -125 -70.5 -195t-208.5 -70t-208.5 70z" />
    <glyph glyph-name="Ucircumflex" unicode="&#xdb;" horiz-adv-x="688" 
d="M311 903h67l137 -161h-78l-92 114l-92 -114h-79zM135.5 55q-70.5 70 -70.5 195v449h78v-455q0 -95 53 -142t148 -47t148 47t53 142v455h78v-449q0 -125 -70.5 -195t-208.5 -70t-208.5 70z" />
    <glyph glyph-name="Udieresis" unicode="&#xdc;" horiz-adv-x="688" 
d="M201 756.5q-15 14.5 -15 34.5t15 34.5t35 14.5t34.5 -14.5t14.5 -34.5t-14.5 -34.5t-34.5 -14.5t-35 14.5zM418 756.5q-15 14.5 -15 34.5t15 34.5t35 14.5t34.5 -14.5t14.5 -34.5t-14.5 -34.5t-34.5 -14.5t-35 14.5zM135.5 55q-70.5 70 -70.5 195v449h78v-455
q0 -95 53 -142t148 -47t148 47t53 142v455h78v-449q0 -125 -70.5 -195t-208.5 -70t-208.5 70z" />
    <glyph glyph-name="Yacute" unicode="&#xdd;" horiz-adv-x="686" 
d="M370 912h81l-80 -170h-69zM304 265l-254 434h83l210 -363l211 363h82l-254 -434v-265h-78v265z" />
    <glyph glyph-name="Thorn" unicode="&#xde;" horiz-adv-x="592" 
d="M70 699h78v-147h185q229 0 229 -202q0 -103 -59 -152t-170 -49h-185v-149h-78v699zM323 215q76 0 118.5 28.5t42.5 106.5t-42.5 107t-118.5 29h-175v-271h175z" />
    <glyph glyph-name="germandbls" unicode="&#xdf;" horiz-adv-x="619" 
d="M216 5v71q26 -12 55.5 -16.5t68.5 -4.5q69 0 110 43t41 114q0 73 -45.5 106t-124.5 33h-44v66h41q53 0 81.5 34t28.5 96q0 57 -37.5 91.5t-101.5 34.5q-146 0 -146 -158v-515h-78v510q0 115 59 174.5t165 59.5q71 0 120 -27.5t73 -72.5t24 -97q0 -55 -22.5 -95t-63.5 -60
q70 -13 109.5 -61.5t39.5 -127.5q0 -97 -56.5 -157.5t-162.5 -60.5q-89 0 -134 20z" />
    <glyph glyph-name="agrave" unicode="&#xe0;" horiz-adv-x="562" 
d="M188 705h81l68 -170h-69zM100.5 28.5q-50.5 43.5 -50.5 119.5q0 79 49 121.5t142 42.5q104 0 179 -43v36q0 65 -37 96.5t-117 31.5q-85 0 -157 -32v65q30 13 76 21t88 8q114 0 169 -51.5t55 -142.5v-301h-72v62q-63 -77 -187 -77q-87 0 -137.5 43.5zM354.5 69.5
q43.5 21.5 65.5 60.5v77q-39 23 -77.5 33.5t-86.5 10.5q-68 0 -98.5 -25.5t-30.5 -77.5q0 -100 130 -100q54 0 97.5 21.5z" />
    <glyph glyph-name="aacute" unicode="&#xe1;" horiz-adv-x="562" 
d="M321 705h81l-80 -170h-69zM100.5 28.5q-50.5 43.5 -50.5 119.5q0 79 49 121.5t142 42.5q104 0 179 -43v36q0 65 -37 96.5t-117 31.5q-85 0 -157 -32v65q30 13 76 21t88 8q114 0 169 -51.5t55 -142.5v-301h-72v62q-63 -77 -187 -77q-87 0 -137.5 43.5zM354.5 69.5
q43.5 21.5 65.5 60.5v77q-39 23 -77.5 33.5t-86.5 10.5q-68 0 -98.5 -25.5t-30.5 -77.5q0 -100 130 -100q54 0 97.5 21.5z" />
    <glyph glyph-name="acircumflex" unicode="&#xe2;" horiz-adv-x="562" 
d="M258 696h67l137 -161h-78l-92 114l-92 -114h-79zM100.5 28.5q-50.5 43.5 -50.5 119.5q0 79 49 121.5t142 42.5q104 0 179 -43v36q0 65 -37 96.5t-117 31.5q-85 0 -157 -32v65q30 13 76 21t88 8q114 0 169 -51.5t55 -142.5v-301h-72v62q-63 -77 -187 -77
q-87 0 -137.5 43.5zM354.5 69.5q43.5 21.5 65.5 60.5v77q-39 23 -77.5 33.5t-86.5 10.5q-68 0 -98.5 -25.5t-30.5 -77.5q0 -100 130 -100q54 0 97.5 21.5z" />
    <glyph glyph-name="atilde" unicode="&#xe3;" horiz-adv-x="562" 
d="M117 604q28 43 95 43q22 0 42 -6t51 -19q26 -12 46 -18.5t42 -6.5q29 0 52.5 12t42.5 40v-69q-28 -42 -95 -42q-25 0 -47 6.5t-50 19.5q-28 12 -45.5 18t-38.5 6q-28 0 -51 -12t-44 -41v69zM100.5 28.5q-50.5 43.5 -50.5 119.5q0 79 49 121.5t142 42.5q104 0 179 -43v36
q0 65 -37 96.5t-117 31.5q-85 0 -157 -32v65q30 13 76 21t88 8q114 0 169 -51.5t55 -142.5v-301h-72v62q-63 -77 -187 -77q-87 0 -137.5 43.5zM354.5 69.5q43.5 21.5 65.5 60.5v77q-39 23 -77.5 33.5t-86.5 10.5q-68 0 -98.5 -25.5t-30.5 -77.5q0 -100 130 -100
q54 0 97.5 21.5z" />
    <glyph glyph-name="adieresis" unicode="&#xe4;" horiz-adv-x="562" 
d="M152 549.5q-15 14.5 -15 34.5t15 34.5t35 14.5t34.5 -14.5t14.5 -34.5t-14.5 -34.5t-34.5 -14.5t-35 14.5zM369 549.5q-15 14.5 -15 34.5t15 34.5t35 14.5t34.5 -14.5t14.5 -34.5t-14.5 -34.5t-34.5 -14.5t-35 14.5zM100.5 28.5q-50.5 43.5 -50.5 119.5q0 79 49 121.5
t142 42.5q104 0 179 -43v36q0 65 -37 96.5t-117 31.5q-85 0 -157 -32v65q30 13 76 21t88 8q114 0 169 -51.5t55 -142.5v-301h-72v62q-63 -77 -187 -77q-87 0 -137.5 43.5zM354.5 69.5q43.5 21.5 65.5 60.5v77q-39 23 -77.5 33.5t-86.5 10.5q-68 0 -98.5 -25.5t-30.5 -77.5
q0 -100 130 -100q54 0 97.5 21.5z" />
    <glyph glyph-name="aring" unicode="&#xe5;" horiz-adv-x="562" 
d="M221.5 566.5q-31.5 31.5 -31.5 76.5q0 44 31.5 76t76.5 32q44 0 76 -32t32 -76q0 -45 -32 -76.5t-76 -31.5q-45 0 -76.5 31.5zM338 602.5q17 17.5 17 40.5t-17 40t-40 17q-24 0 -40.5 -17t-16.5 -40t17 -40.5t40 -17.5t40 17.5zM100.5 28.5q-50.5 43.5 -50.5 119.5
q0 79 49 121.5t142 42.5q104 0 179 -43v36q0 65 -37 96.5t-117 31.5q-85 0 -157 -32v65q30 13 76 21t88 8q114 0 169 -51.5t55 -142.5v-301h-72v62q-63 -77 -187 -77q-87 0 -137.5 43.5zM354.5 69.5q43.5 21.5 65.5 60.5v77q-39 23 -77.5 33.5t-86.5 10.5q-68 0 -98.5 -25.5
t-30.5 -77.5q0 -100 130 -100q54 0 97.5 21.5z" />
    <glyph glyph-name="ae" unicode="&#xe6;" horiz-adv-x="975" 
d="M100.5 28.5q-50.5 43.5 -50.5 119.5q0 79 49 121.5t142 42.5q104 0 179 -43v36q0 65 -37 96.5t-117 31.5q-85 0 -157 -32v65q30 13 76 21t88 8q138 0 193 -90q66 90 205 90q82 0 139 -31.5t86 -86.5t29 -125v-42h-433q4 -82 59.5 -123t151.5 -41q47 0 92.5 8.5t81.5 23.5
v-65q-30 -12 -81.5 -20t-100.5 -8q-158 0 -230 102q-81 -102 -227 -102q-87 0 -137.5 43.5zM853 265q-2 78 -48 123t-135 45q-86 0 -131 -46.5t-47 -121.5h361zM354.5 69.5q43.5 21.5 65.5 60.5v77q-39 23 -77.5 33.5t-86.5 10.5q-68 0 -98.5 -25.5t-30.5 -77.5
q0 -100 130 -100q54 0 97.5 21.5z" />
    <glyph glyph-name="ccedilla" unicode="&#xe7;" horiz-adv-x="547" 
d="M431.5 -0.5q-35.5 -10.5 -81.5 -13.5l-18 -46q93 -12 93 -92q0 -42 -33.5 -69t-90.5 -27q-21 0 -41.5 3t-31.5 7v48q10 -4 26 -7t31 -3q68 0 68 50q0 29 -23.5 43t-79.5 14l30 80q-103 10 -166.5 77t-63.5 175q0 77 34.5 135.5t95.5 89.5t138 31q55 0 97 -10t75 -32v-65
q-63 45 -165 45q-88 0 -143 -51t-55 -143t55 -142.5t140 -50.5q53 0 95 12t80 37v-65q-30 -20 -65.5 -30.5z" />
    <glyph glyph-name="egrave" unicode="&#xe8;" horiz-adv-x="608" 
d="M204 705h81l68 -170h-69zM123.5 52q-73.5 67 -73.5 187q0 118 66 187t188 69q82 0 139 -31.5t86 -86.5t29 -125v-42h-436q4 -82 60.5 -123t153.5 -41q47 0 92.5 8.5t81.5 23.5v-65q-30 -12 -81.5 -20t-100.5 -8q-131 0 -204.5 67zM486 265q-2 78 -48 123t-135 45
q-87 0 -133 -46.5t-48 -121.5h364z" />
    <glyph glyph-name="eacute" unicode="&#xe9;" horiz-adv-x="608" 
d="M333 705h81l-80 -170h-69zM123.5 52q-73.5 67 -73.5 187q0 118 66 187t188 69q82 0 139 -31.5t86 -86.5t29 -125v-42h-436q4 -82 60.5 -123t153.5 -41q47 0 92.5 8.5t81.5 23.5v-65q-30 -12 -81.5 -20t-100.5 -8q-131 0 -204.5 67zM486 265q-2 78 -48 123t-135 45
q-87 0 -133 -46.5t-48 -121.5h364z" />
    <glyph glyph-name="ecircumflex" unicode="&#xea;" horiz-adv-x="608" 
d="M276 696h67l137 -161h-78l-92 114l-92 -114h-79zM123.5 52q-73.5 67 -73.5 187q0 118 66 187t188 69q82 0 139 -31.5t86 -86.5t29 -125v-42h-436q4 -82 60.5 -123t153.5 -41q47 0 92.5 8.5t81.5 23.5v-65q-30 -12 -81.5 -20t-100.5 -8q-131 0 -204.5 67zM486 265
q-2 78 -48 123t-135 45q-87 0 -133 -46.5t-48 -121.5h364z" />
    <glyph glyph-name="edieresis" unicode="&#xeb;" horiz-adv-x="608" 
d="M165 549.5q-15 14.5 -15 34.5t15 34.5t35 14.5t34.5 -14.5t14.5 -34.5t-14.5 -34.5t-34.5 -14.5t-35 14.5zM382 549.5q-15 14.5 -15 34.5t15 34.5t35 14.5t34.5 -14.5t14.5 -34.5t-14.5 -34.5t-34.5 -14.5t-35 14.5zM123.5 52q-73.5 67 -73.5 187q0 118 66 187t188 69
q82 0 139 -31.5t86 -86.5t29 -125v-42h-436q4 -82 60.5 -123t153.5 -41q47 0 92.5 8.5t81.5 23.5v-65q-30 -12 -81.5 -20t-100.5 -8q-131 0 -204.5 67zM486 265q-2 78 -48 123t-135 45q-87 0 -133 -46.5t-48 -121.5h364z" />
    <glyph glyph-name="igrave" unicode="&#xec;" horiz-adv-x="217" 
d="M-5 705h81l68 -170h-69zM70 480h77v-480h-77v480z" />
    <glyph glyph-name="iacute" unicode="&#xed;" horiz-adv-x="217" 
d="M142 705h81l-80 -170h-69zM70 480h77v-480h-77v480z" />
    <glyph glyph-name="icircumflex" unicode="&#xee;" horiz-adv-x="217" 
d="M75 696h67l137 -161h-78l-92 114l-92 -114h-79zM70 480h77v-480h-77v480z" />
    <glyph glyph-name="idieresis" unicode="&#xef;" horiz-adv-x="217" 
d="M-35 549.5q-15 14.5 -15 34.5t15 34.5t35 14.5t34.5 -14.5t14.5 -34.5t-14.5 -34.5t-34.5 -14.5t-35 14.5zM182 549.5q-15 14.5 -15 34.5t15 34.5t35 14.5t34.5 -14.5t14.5 -34.5t-14.5 -34.5t-34.5 -14.5t-35 14.5zM70 480h77v-480h-77v480z" />
    <glyph glyph-name="eth" unicode="&#xf0;" horiz-adv-x="617" 
d="M164 14q-55 29 -84.5 81t-29.5 120q0 69 29.5 121t84 80t128.5 28q61 0 111 -24.5t77 -69.5q-5 155 -54 229l-159 -73v53l125 58q-44 35 -109 35q-26 0 -55 -3.5t-46 -9.5v65q46 10 96 10q113 0 179 -67l110 51v-53l-80 -37q63 -101 63 -316q0 -99 -33.5 -168.5
t-91.5 -104t-131 -34.5q-75 0 -130 29zM383.5 67q38.5 24 60 63t21.5 84q0 48 -22.5 87.5t-61.5 61.5t-85 22q-76 0 -123.5 -47t-47.5 -124q0 -76 47.5 -123.5t123.5 -47.5q49 0 87.5 24z" />
    <glyph glyph-name="ntilde" unicode="&#xf1;" horiz-adv-x="591" 
d="M108 604q28 43 95 43q22 0 42 -6t51 -19q26 -12 46 -18.5t42 -6.5q29 0 52.5 12t42.5 40v-69q-28 -42 -95 -42q-25 0 -47 6.5t-50 19.5q-28 12 -45.5 18t-38.5 6q-28 0 -51 -12t-44 -41v69zM70 480h75v-72q35 45 85.5 66t107.5 21q95 0 141.5 -50t46.5 -134v-311h-77v304
q0 62 -30 95.5t-96 33.5q-111 0 -176 -100v-333h-77v480z" />
    <glyph glyph-name="ograve" unicode="&#xf2;" horiz-adv-x="632" 
d="M208 705h81l68 -170h-69zM177.5 16q-60.5 31 -94 88.5t-33.5 134.5q0 76 34 134t94.5 90t137.5 32t137.5 -32t94.5 -90t34 -134q0 -77 -33.5 -134.5t-94 -88.5t-138.5 -31t-138.5 31zM453.5 98.5q51.5 52.5 51.5 140.5q0 89 -51.5 141.5t-137.5 52.5t-137.5 -52.5
t-51.5 -141.5q0 -88 51.5 -140.5t137.5 -52.5t137.5 52.5z" />
    <glyph glyph-name="oacute" unicode="&#xf3;" horiz-adv-x="632" 
d="M333 705h81l-80 -170h-69zM177.5 16q-60.5 31 -94 88.5t-33.5 134.5q0 76 34 134t94.5 90t137.5 32t137.5 -32t94.5 -90t34 -134q0 -77 -33.5 -134.5t-94 -88.5t-138.5 -31t-138.5 31zM453.5 98.5q51.5 52.5 51.5 140.5q0 89 -51.5 141.5t-137.5 52.5t-137.5 -52.5
t-51.5 -141.5q0 -88 51.5 -140.5t137.5 -52.5t137.5 52.5z" />
    <glyph glyph-name="ocircumflex" unicode="&#xf4;" horiz-adv-x="632" 
d="M283 696h67l137 -161h-78l-92 114l-92 -114h-79zM177.5 16q-60.5 31 -94 88.5t-33.5 134.5q0 76 34 134t94.5 90t137.5 32t137.5 -32t94.5 -90t34 -134q0 -77 -33.5 -134.5t-94 -88.5t-138.5 -31t-138.5 31zM453.5 98.5q51.5 52.5 51.5 140.5q0 89 -51.5 141.5
t-137.5 52.5t-137.5 -52.5t-51.5 -141.5q0 -88 51.5 -140.5t137.5 -52.5t137.5 52.5z" />
    <glyph glyph-name="otilde" unicode="&#xf5;" horiz-adv-x="632" 
d="M131 604q28 43 95 43q22 0 42 -6t51 -19q26 -12 46 -18.5t42 -6.5q29 0 52.5 12t42.5 40v-69q-28 -42 -95 -42q-25 0 -47 6.5t-50 19.5q-28 12 -45.5 18t-38.5 6q-28 0 -51 -12t-44 -41v69zM177.5 16q-60.5 31 -94 88.5t-33.5 134.5q0 76 34 134t94.5 90t137.5 32
t137.5 -32t94.5 -90t34 -134q0 -77 -33.5 -134.5t-94 -88.5t-138.5 -31t-138.5 31zM453.5 98.5q51.5 52.5 51.5 140.5q0 89 -51.5 141.5t-137.5 52.5t-137.5 -52.5t-51.5 -141.5q0 -88 51.5 -140.5t137.5 -52.5t137.5 52.5z" />
    <glyph glyph-name="odieresis" unicode="&#xf6;" horiz-adv-x="632" 
d="M173 549.5q-15 14.5 -15 34.5t15 34.5t35 14.5t34.5 -14.5t14.5 -34.5t-14.5 -34.5t-34.5 -14.5t-35 14.5zM390 549.5q-15 14.5 -15 34.5t15 34.5t35 14.5t34.5 -14.5t14.5 -34.5t-14.5 -34.5t-34.5 -14.5t-35 14.5zM177.5 16q-60.5 31 -94 88.5t-33.5 134.5q0 76 34 134
t94.5 90t137.5 32t137.5 -32t94.5 -90t34 -134q0 -77 -33.5 -134.5t-94 -88.5t-138.5 -31t-138.5 31zM453.5 98.5q51.5 52.5 51.5 140.5q0 89 -51.5 141.5t-137.5 52.5t-137.5 -52.5t-51.5 -141.5q0 -88 51.5 -140.5t137.5 -52.5t137.5 52.5z" />
    <glyph glyph-name="divide" unicode="&#xf7;" horiz-adv-x="407" 
d="M170.5 399.5q-12.5 12.5 -12.5 31.5t12.5 32t31.5 13t32 -13t13 -32t-13 -31.5t-32 -12.5t-31.5 12.5zM50 327h307v-62h-307v62zM170.5 128.5q-12.5 12.5 -12.5 31.5t12.5 32t31.5 13t32 -13t13 -32t-13 -31.5t-32 -12.5t-31.5 12.5z" />
    <glyph glyph-name="oslash" unicode="&#xf8;" horiz-adv-x="632" 
d="M186 11q-64 30 -100 89t-36 139q0 76 34 134t94.5 90t137.5 32q32 0 62 -6l31 77h76l-40 -99q64 -30 100.5 -90t36.5 -138q0 -77 -33.5 -134.5t-94 -88.5t-138.5 -31q-33 0 -62 6l-31 -77h-76zM354 430q-18 3 -38 3q-86 0 -137.5 -52.5t-51.5 -141.5q0 -57 21.5 -99.5
t61.5 -66.5zM453.5 98.5q51.5 52.5 51.5 140.5q0 57 -22 100.5t-62 66.5l-144 -357q19 -3 39 -3q86 0 137.5 52.5z" />
    <glyph glyph-name="ugrave" unicode="&#xf9;" horiz-adv-x="591" 
d="M184 705h81l68 -170h-69zM116.5 37q-51.5 52 -51.5 139v304h77v-308q0 -126 131 -126q55 0 96.5 24t74.5 76v334h77v-480h-75v72q-65 -87 -182 -87q-96 0 -147.5 52z" />
    <glyph glyph-name="uacute" unicode="&#xfa;" horiz-adv-x="591" 
d="M324 705h81l-80 -170h-69zM116.5 37q-51.5 52 -51.5 139v304h77v-308q0 -126 131 -126q55 0 96.5 24t74.5 76v334h77v-480h-75v72q-65 -87 -182 -87q-96 0 -147.5 52z" />
    <glyph glyph-name="ucircumflex" unicode="&#xfb;" horiz-adv-x="591" 
d="M254 696h67l137 -161h-78l-92 114l-92 -114h-79zM116.5 37q-51.5 52 -51.5 139v304h77v-308q0 -126 131 -126q55 0 96.5 24t74.5 76v334h77v-480h-75v72q-65 -87 -182 -87q-96 0 -147.5 52z" />
    <glyph glyph-name="udieresis" unicode="&#xfc;" horiz-adv-x="591" 
d="M151 549.5q-15 14.5 -15 34.5t15 34.5t35 14.5t34.5 -14.5t14.5 -34.5t-14.5 -34.5t-34.5 -14.5t-35 14.5zM368 549.5q-15 14.5 -15 34.5t15 34.5t35 14.5t34.5 -14.5t14.5 -34.5t-14.5 -34.5t-34.5 -14.5t-35 14.5zM116.5 37q-51.5 52 -51.5 139v304h77v-308
q0 -126 131 -126q55 0 96.5 24t74.5 76v334h77v-480h-75v72q-65 -87 -182 -87q-96 0 -147.5 52z" />
    <glyph glyph-name="yacute" unicode="&#xfd;" horiz-adv-x="575" 
d="M328 705h81l-80 -170h-69zM78 -189v62q11 -4 31.5 -7t34.5 -3q34 0 55 18t38 60l26 62l-213 477h82l172 -388l159 388h82l-222 -544q-28 -69 -65.5 -101.5t-97.5 -32.5q-46 0 -82 9z" />
    <glyph glyph-name="thorn" unicode="&#xfe;" horiz-adv-x="656" 
d="M70 699h77v-299q34 46 88 70.5t120 24.5q71 0 128 -31.5t90 -89t33 -133.5t-32.5 -134t-90 -90t-128.5 -32q-65 0 -121 24.5t-87 71.5v-300h-77v918zM435.5 70.5q43.5 24.5 68.5 68.5t25 102q0 57 -25 100.5t-68.5 67.5t-96.5 24q-69 0 -120.5 -35.5t-71.5 -97.5v-119
q19 -62 71.5 -98.5t120.5 -36.5q53 0 96.5 24.5z" />
    <glyph glyph-name="ydieresis" unicode="&#xff;" horiz-adv-x="575" 
d="M161 549.5q-15 14.5 -15 34.5t15 34.5t35 14.5t34.5 -14.5t14.5 -34.5t-14.5 -34.5t-34.5 -14.5t-35 14.5zM378 549.5q-15 14.5 -15 34.5t15 34.5t35 14.5t34.5 -14.5t14.5 -34.5t-14.5 -34.5t-34.5 -14.5t-35 14.5zM78 -189v62q11 -4 31.5 -7t34.5 -3q34 0 55 18t38 60
l26 62l-213 477h82l172 -388l159 388h82l-222 -544q-28 -69 -65.5 -101.5t-97.5 -32.5q-46 0 -82 9z" />
    <glyph glyph-name="Amacron" unicode="&#x100;" horiz-adv-x="731" 
d="M215 816h301v-54h-301v54zM329 699h73l279 -699h-80l-75 187h-322l-74 -187h-80zM504 253l-139 356l-138 -356h277z" />
    <glyph glyph-name="amacron" unicode="&#x101;" horiz-adv-x="562" 
d="M151 609h301v-54h-301v54zM100.5 28.5q-50.5 43.5 -50.5 119.5q0 79 49 121.5t142 42.5q104 0 179 -43v36q0 65 -37 96.5t-117 31.5q-85 0 -157 -32v65q30 13 76 21t88 8q114 0 169 -51.5t55 -142.5v-301h-72v62q-63 -77 -187 -77q-87 0 -137.5 43.5zM354.5 69.5
q43.5 21.5 65.5 60.5v77q-39 23 -77.5 33.5t-86.5 10.5q-68 0 -98.5 -25.5t-30.5 -77.5q0 -100 130 -100q54 0 97.5 21.5z" />
    <glyph glyph-name="Abreve" unicode="&#x102;" horiz-adv-x="731" 
d="M264 778.5q-38 36.5 -38 93.5h60q0 -35 21.5 -55.5t58.5 -20.5t58.5 20.5t21.5 55.5h59q0 -57 -38 -93.5t-101 -36.5q-64 0 -102 36.5zM329 699h73l279 -699h-80l-75 187h-322l-74 -187h-80zM504 253l-139 356l-138 -356h277z" />
    <glyph glyph-name="abreve" unicode="&#x103;" horiz-adv-x="562" 
d="M201 571.5q-38 36.5 -38 93.5h60q0 -35 21.5 -55.5t58.5 -20.5t58.5 20.5t21.5 55.5h59q0 -57 -38 -93.5t-101 -36.5q-64 0 -102 36.5zM100.5 28.5q-50.5 43.5 -50.5 119.5q0 79 49 121.5t142 42.5q104 0 179 -43v36q0 65 -37 96.5t-117 31.5q-85 0 -157 -32v65
q30 13 76 21t88 8q114 0 169 -51.5t55 -142.5v-301h-72v62q-63 -77 -187 -77q-87 0 -137.5 43.5zM354.5 69.5q43.5 21.5 65.5 60.5v77q-39 23 -77.5 33.5t-86.5 10.5q-68 0 -98.5 -25.5t-30.5 -77.5q0 -100 130 -100q54 0 97.5 21.5z" />
    <glyph glyph-name="Aogonek" unicode="&#x104;" horiz-adv-x="731" 
d="M687 -149v-50q-25 -11 -66 -11q-42 0 -69.5 22.5t-27.5 64.5q0 37 21 69t54 54h2l-75 187h-322l-74 -187h-80l279 699h73l279 -699h-10q-39 -27 -59 -54t-20 -58q0 -25 11.5 -36t36.5 -11t47 10zM504 253l-139 356l-138 -356h277z" />
    <glyph glyph-name="aogonek" unicode="&#x105;" horiz-adv-x="562" 
d="M513 -149v-50q-25 -11 -66 -11q-42 0 -69.5 22.5t-27.5 64.5q0 37 21 69t54 54v62q-63 -77 -187 -77q-87 0 -137.5 43.5t-50.5 119.5q0 79 49 121.5t142 42.5q104 0 179 -43v36q0 65 -37 96.5t-117 31.5q-85 0 -157 -32v65q30 13 76 21t88 8q114 0 169 -51.5t55 -142.5
v-301q-39 -27 -59 -54t-20 -58q0 -25 11.5 -36t36.5 -11t47 10zM420 207q-39 23 -77.5 33.5t-86.5 10.5q-68 0 -98.5 -25.5t-30.5 -77.5q0 -100 130 -100q54 0 97.5 21.5t65.5 60.5v77z" />
    <glyph glyph-name="Cacute" unicode="&#x106;" horiz-adv-x="716" 
d="M445 912h81l-80 -170h-69zM227.5 30q-83.5 45 -130.5 127.5t-47 191.5t47 191.5t130.5 128t189.5 45.5q145 0 240 -76v-76q-90 81 -234 81q-85 0 -152 -36t-105 -102.5t-38 -155.5t38.5 -155.5t105.5 -102.5t151 -36q75 0 134 20t109 66v-77q-89 -79 -249 -79
q-106 0 -189.5 45z" />
    <glyph glyph-name="cacute" unicode="&#x107;" horiz-adv-x="547" 
d="M336 705h81l-80 -170h-69zM178.5 15.5q-60.5 30.5 -94.5 88t-34 135.5q0 77 34.5 135.5t95.5 89.5t138 31q55 0 97 -10t75 -32v-65q-63 45 -165 45q-88 0 -143 -51t-55 -143t55 -142.5t140 -50.5q53 0 95 12t80 37v-65q-35 -24 -78.5 -34.5t-103.5 -10.5
q-76 0 -136.5 30.5z" />
    <glyph glyph-name="Ccircumflex" unicode="&#x108;" horiz-adv-x="716" 
d="M375 903h67l137 -161h-78l-92 114l-92 -114h-79zM227.5 30q-83.5 45 -130.5 127.5t-47 191.5t47 191.5t130.5 128t189.5 45.5q145 0 240 -76v-76q-90 81 -234 81q-85 0 -152 -36t-105 -102.5t-38 -155.5t38.5 -155.5t105.5 -102.5t151 -36q75 0 134 20t109 66v-77
q-89 -79 -249 -79q-106 0 -189.5 45z" />
    <glyph glyph-name="ccircumflex" unicode="&#x109;" horiz-adv-x="547" 
d="M277 696h67l137 -161h-78l-92 114l-92 -114h-79zM178.5 15.5q-60.5 30.5 -94.5 88t-34 135.5q0 77 34.5 135.5t95.5 89.5t138 31q55 0 97 -10t75 -32v-65q-63 45 -165 45q-88 0 -143 -51t-55 -143t55 -142.5t140 -50.5q53 0 95 12t80 37v-65q-35 -24 -78.5 -34.5
t-103.5 -10.5q-76 0 -136.5 30.5z" />
    <glyph glyph-name="Cdotaccent" unicode="&#x10a;" horiz-adv-x="716" 
d="M378 756.5q-15 14.5 -15 34.5t15 34.5t35 14.5t34.5 -14.5t14.5 -34.5t-14.5 -34.5t-34.5 -14.5t-35 14.5zM227.5 30q-83.5 45 -130.5 127.5t-47 191.5t47 191.5t130.5 128t189.5 45.5q145 0 240 -76v-76q-90 81 -234 81q-85 0 -152 -36t-105 -102.5t-38 -155.5
t38.5 -155.5t105.5 -102.5t151 -36q75 0 134 20t109 66v-77q-89 -79 -249 -79q-106 0 -189.5 45z" />
    <glyph glyph-name="cdotaccent" unicode="&#x10b;" horiz-adv-x="547" 
d="M277 549.5q-15 14.5 -15 34.5t15 34.5t35 14.5t34.5 -14.5t14.5 -34.5t-14.5 -34.5t-34.5 -14.5t-35 14.5zM178.5 15.5q-60.5 30.5 -94.5 88t-34 135.5q0 77 34.5 135.5t95.5 89.5t138 31q55 0 97 -10t75 -32v-65q-63 45 -165 45q-88 0 -143 -51t-55 -143t55 -142.5
t140 -50.5q53 0 95 12t80 37v-65q-35 -24 -78.5 -34.5t-103.5 -10.5q-76 0 -136.5 30.5z" />
    <glyph glyph-name="Ccaron" unicode="&#x10c;" horiz-adv-x="716" 
d="M247 903h79l92 -114l92 114h78l-137 -161h-67zM227.5 30q-83.5 45 -130.5 127.5t-47 191.5t47 191.5t130.5 128t189.5 45.5q145 0 240 -76v-76q-90 81 -234 81q-85 0 -152 -36t-105 -102.5t-38 -155.5t38.5 -155.5t105.5 -102.5t151 -36q75 0 134 20t109 66v-77
q-89 -79 -249 -79q-106 0 -189.5 45z" />
    <glyph glyph-name="ccaron" unicode="&#x10d;" horiz-adv-x="547" 
d="M144 696h79l92 -114l92 114h78l-137 -161h-67zM178.5 15.5q-60.5 30.5 -94.5 88t-34 135.5q0 77 34.5 135.5t95.5 89.5t138 31q55 0 97 -10t75 -32v-65q-63 45 -165 45q-88 0 -143 -51t-55 -143t55 -142.5t140 -50.5q53 0 95 12t80 37v-65q-35 -24 -78.5 -34.5
t-103.5 -10.5q-76 0 -136.5 30.5z" />
    <glyph glyph-name="Dcaron" unicode="&#x10e;" horiz-adv-x="701" 
d="M136 903h79l92 -114l92 114h78l-137 -161h-67zM70 699h216q112 0 194.5 -42t126.5 -120t44 -184q0 -175 -100 -264t-281 -89h-200v699zM265 66q158 0 233 72.5t75 214.5q0 132 -73 206t-215 74h-137v-567h117z" />
    <glyph glyph-name="dcaron" unicode="&#x10f;" horiz-adv-x="796" 
d="M709 769h67l-84 -177h-58zM173 1.5q-57 31.5 -90 89t-33 134.5q0 75 32.5 133t90 90t128.5 32q66 0 123.5 -28.5t85.5 -79.5v352h77v-739h-75v95q-32 -53 -87 -81.5t-124 -28.5q-71 0 -128 31.5zM438 66.5q52 34.5 72 95.5v125q-18 61 -71 96.5t-122 35.5q-53 0 -96 -24
t-68 -68t-25 -103q0 -58 25 -101.5t68 -67t96 -23.5q69 0 121 34.5z" />
    <glyph glyph-name="Dcroat" unicode="&#x110;" horiz-adv-x="730" 
d="M99 319h-69v60h69v320h217q112 0 194 -42t126 -120t44 -184q0 -175 -100 -264t-281 -89h-200v319zM295 71q153 0 230 71.5t77 210.5q0 130 -75.5 202.5t-212.5 72.5h-136v-249h197v-60h-197v-248h117z" />
    <glyph glyph-name="dcroat" unicode="&#x111;" horiz-adv-x="675" 
d="M173 16q-57 31 -90 89t-33 134q0 75 32.5 133.5t90 90.5t128.5 32q69 0 122.5 -24.5t85.5 -71.5v156h-210v60h210v124h77v-124h59v-60h-59v-555h-75v84q-38 -50 -89.5 -74.5t-120.5 -24.5q-71 0 -128 31zM437.5 81.5q51.5 35.5 71.5 97.5v120q-19 62 -70.5 98t-121.5 36
q-53 0 -96.5 -24.5t-68.5 -68.5t-25 -101t25 -101t68.5 -68t96.5 -24q69 0 120.5 35.5z" />
    <glyph glyph-name="Emacron" unicode="&#x112;" horiz-adv-x="570" 
d="M145 816h301v-54h-301v54zM70 699h450v-66h-372v-250h279v-66h-279v-251h372v-66h-450v699z" />
    <glyph glyph-name="emacron" unicode="&#x113;" horiz-adv-x="608" 
d="M156 609h301v-54h-301v54zM123.5 52q-73.5 67 -73.5 187q0 118 66 187t188 69q82 0 139 -31.5t86 -86.5t29 -125v-42h-436q4 -82 60.5 -123t153.5 -41q47 0 92.5 8.5t81.5 23.5v-65q-30 -12 -81.5 -20t-100.5 -8q-131 0 -204.5 67zM486 265q-2 78 -48 123t-135 45
q-87 0 -133 -46.5t-48 -121.5h364z" />
    <glyph glyph-name="Ebreve" unicode="&#x114;" horiz-adv-x="570" 
d="M194 778.5q-38 36.5 -38 93.5h60q0 -35 21.5 -55.5t58.5 -20.5t58.5 20.5t21.5 55.5h59q0 -57 -38 -93.5t-101 -36.5q-64 0 -102 36.5zM70 699h450v-66h-372v-250h279v-66h-279v-251h372v-66h-450v699z" />
    <glyph glyph-name="ebreve" unicode="&#x115;" horiz-adv-x="608" 
d="M206 571.5q-38 36.5 -38 93.5h60q0 -35 21.5 -55.5t58.5 -20.5t58.5 20.5t21.5 55.5h59q0 -57 -38 -93.5t-101 -36.5q-64 0 -102 36.5zM123.5 52q-73.5 67 -73.5 187q0 118 66 187t188 69q82 0 139 -31.5t86 -86.5t29 -125v-42h-436q4 -82 60.5 -123t153.5 -41
q47 0 92.5 8.5t81.5 23.5v-65q-30 -12 -81.5 -20t-100.5 -8q-131 0 -204.5 67zM486 265q-2 78 -48 123t-135 45q-87 0 -133 -46.5t-48 -121.5h364z" />
    <glyph glyph-name="Edotaccent" unicode="&#x116;" horiz-adv-x="570" 
d="M255 754.5q-15 14.5 -15 34.5t15 34.5t35 14.5t34.5 -14.5t14.5 -34.5t-14.5 -34.5t-34.5 -14.5t-35 14.5zM70 699h450v-66h-372v-250h279v-66h-279v-251h372v-66h-450v699z" />
    <glyph glyph-name="edotaccent" unicode="&#x117;" horiz-adv-x="608" 
d="M277 547.5q-15 14.5 -15 34.5t15 34.5t35 14.5t34.5 -14.5t14.5 -34.5t-14.5 -34.5t-34.5 -14.5t-35 14.5zM123.5 52q-73.5 67 -73.5 187q0 118 66 187t188 69q82 0 139 -31.5t86 -86.5t29 -125v-42h-436q4 -82 60.5 -123t153.5 -41q47 0 92.5 8.5t81.5 23.5v-65
q-30 -12 -81.5 -20t-100.5 -8q-131 0 -204.5 67zM486 265q-2 78 -48 123t-135 45q-87 0 -133 -46.5t-48 -121.5h364z" />
    <glyph glyph-name="Eogonek" unicode="&#x118;" horiz-adv-x="570" 
d="M148 633v-250h279v-66h-279v-251h372v-66h-28q-39 -27 -59 -54t-20 -58q0 -25 11.5 -36t36.5 -11t47 10v-50q-25 -11 -66 -11q-42 0 -69.5 22.5t-27.5 64.5q0 37 21 69t54 54h-350v699h450v-66h-372z" />
    <glyph glyph-name="eogonek" unicode="&#x119;" horiz-adv-x="608" 
d="M558 210h-436q4 -82 60.5 -123t153.5 -41q47 0 92.5 8.5t81.5 23.5v-65q-25 -10 -76 -19q-70 -51 -70 -106q0 -25 11.5 -36t36.5 -11t47 10v-50q-25 -11 -66 -11q-42 0 -69.5 22.5t-27.5 64.5q0 62 55 108h-23q-131 0 -204.5 67t-73.5 187q0 118 66 187t188 69
q82 0 139 -31.5t86 -86.5t29 -125v-42zM486 265q-2 78 -48 123t-135 45q-87 0 -133 -46.5t-48 -121.5h364z" />
    <glyph glyph-name="Ecaron" unicode="&#x11a;" horiz-adv-x="570" 
d="M123 903h79l92 -114l92 114h78l-137 -161h-67zM70 699h450v-66h-372v-250h279v-66h-279v-251h372v-66h-450v699z" />
    <glyph glyph-name="ecaron" unicode="&#x11b;" horiz-adv-x="608" 
d="M140 696h79l92 -114l92 114h78l-137 -161h-67zM123.5 52q-73.5 67 -73.5 187q0 118 66 187t188 69q82 0 139 -31.5t86 -86.5t29 -125v-42h-436q4 -82 60.5 -123t153.5 -41q47 0 92.5 8.5t81.5 23.5v-65q-30 -12 -81.5 -20t-100.5 -8q-131 0 -204.5 67zM486 265
q-2 78 -48 123t-135 45q-87 0 -133 -46.5t-48 -121.5h364z" />
    <glyph glyph-name="Gcircumflex" unicode="&#x11c;" horiz-adv-x="720" 
d="M378 903h67l137 -161h-78l-92 114l-92 -114h-79zM227.5 30q-83.5 45 -130.5 127.5t-47 191.5t47 191.5t130.5 128t189.5 45.5q145 0 240 -76v-76q-90 81 -234 81q-85 0 -152 -36t-105 -102.5t-38 -155.5t38 -155.5t104.5 -102.5t150.5 -36q49 0 95 11.5t76 30.5v215h-147
v66h225v-314q-49 -41 -111.5 -60t-141.5 -19q-106 0 -189.5 45z" />
    <glyph glyph-name="gcircumflex" unicode="&#x11d;" horiz-adv-x="656" 
d="M305 696h67l137 -161h-78l-92 114l-92 -114h-79zM224 -222q-46 8 -78 22v65q76 -34 172 -34q98 0 144.5 44.5t46.5 134.5v71q-65 -96 -206 -96q-71 0 -129 31.5t-91 89.5t-33 133q0 76 33 134t90 90t128 32q74 0 123 -22.5t87 -73.5v81h75v-460q0 -122 -66 -186t-202 -64
q-48 0 -94 8zM439 82q51 36 70 99v119q-20 63 -71 98t-121 35q-53 0 -96.5 -24.5t-68.5 -68.5t-25 -101q0 -58 25 -101.5t68.5 -67.5t96.5 -24q71 0 122 36z" />
    <glyph glyph-name="Gbreve" unicode="&#x11e;" horiz-adv-x="720" 
d="M319 778.5q-38 36.5 -38 93.5h60q0 -35 21.5 -55.5t58.5 -20.5t58.5 20.5t21.5 55.5h59q0 -57 -38 -93.5t-101 -36.5q-64 0 -102 36.5zM227.5 30q-83.5 45 -130.5 127.5t-47 191.5t47 191.5t130.5 128t189.5 45.5q145 0 240 -76v-76q-90 81 -234 81q-85 0 -152 -36
t-105 -102.5t-38 -155.5t38 -155.5t104.5 -102.5t150.5 -36q49 0 95 11.5t76 30.5v215h-147v66h225v-314q-49 -41 -111.5 -60t-141.5 -19q-106 0 -189.5 45z" />
    <glyph glyph-name="gbreve" unicode="&#x11f;" horiz-adv-x="656" 
d="M226 571.5q-38 36.5 -38 93.5h60q0 -35 21.5 -55.5t58.5 -20.5t58.5 20.5t21.5 55.5h59q0 -57 -38 -93.5t-101 -36.5q-64 0 -102 36.5zM224 -222q-46 8 -78 22v65q76 -34 172 -34q98 0 144.5 44.5t46.5 134.5v71q-65 -96 -206 -96q-71 0 -129 31.5t-91 89.5t-33 133
q0 76 33 134t90 90t128 32q74 0 123 -22.5t87 -73.5v81h75v-460q0 -122 -66 -186t-202 -64q-48 0 -94 8zM439 82q51 36 70 99v119q-20 63 -71 98t-121 35q-53 0 -96.5 -24.5t-68.5 -68.5t-25 -101q0 -58 25 -101.5t68.5 -67.5t96.5 -24q71 0 122 36z" />
    <glyph glyph-name="Gdotaccent" unicode="&#x120;" horiz-adv-x="720" 
d="M380 756.5q-15 14.5 -15 34.5t15 34.5t35 14.5t34.5 -14.5t14.5 -34.5t-14.5 -34.5t-34.5 -14.5t-35 14.5zM227.5 30q-83.5 45 -130.5 127.5t-47 191.5t47 191.5t130.5 128t189.5 45.5q145 0 240 -76v-76q-90 81 -234 81q-85 0 -152 -36t-105 -102.5t-38 -155.5
t38 -155.5t104.5 -102.5t150.5 -36q49 0 95 11.5t76 30.5v215h-147v66h225v-314q-49 -41 -111.5 -60t-141.5 -19q-106 0 -189.5 45z" />
    <glyph glyph-name="gdotaccent" unicode="&#x121;" horiz-adv-x="656" 
d="M301 549.5q-15 14.5 -15 34.5t15 34.5t35 14.5t34.5 -14.5t14.5 -34.5t-14.5 -34.5t-34.5 -14.5t-35 14.5zM224 -222q-46 8 -78 22v65q76 -34 172 -34q98 0 144.5 44.5t46.5 134.5v71q-65 -96 -206 -96q-71 0 -129 31.5t-91 89.5t-33 133q0 76 33 134t90 90t128 32
q74 0 123 -22.5t87 -73.5v81h75v-460q0 -122 -66 -186t-202 -64q-48 0 -94 8zM439 82q51 36 70 99v119q-20 63 -71 98t-121 35q-53 0 -96.5 -24.5t-68.5 -68.5t-25 -101q0 -58 25 -101.5t68.5 -67.5t96.5 -24q71 0 122 36z" />
    <glyph glyph-name="Gcommaaccent" unicode="&#x122;" horiz-adv-x="720" 
d="M227.5 30q-83.5 45 -130.5 127.5t-47 191.5t47 191.5t130.5 128t189.5 45.5q145 0 240 -76v-76q-90 81 -234 81q-85 0 -152 -36t-105 -102.5t-38 -155.5t38 -155.5t104.5 -102.5t150.5 -36q49 0 95 11.5t76 30.5v215h-147v66h225v-314q-49 -41 -111.5 -60t-141.5 -19
q-106 0 -189.5 45zM374 -63h81l-91 -197h-70z" />
    <glyph glyph-name="gcommaaccent" unicode="&#x123;" horiz-adv-x="656" 
d="M373 732h70l-80 -197h-81zM224 -222q-46 8 -78 22v65q76 -34 172 -34q98 0 144.5 44.5t46.5 134.5v71q-65 -96 -206 -96q-71 0 -129 31.5t-91 89.5t-33 133q0 76 33 134t90 90t128 32q74 0 123 -22.5t87 -73.5v81h75v-460q0 -122 -66 -186t-202 -64q-48 0 -94 8zM439 82
q51 36 70 99v119q-20 63 -71 98t-121 35q-53 0 -96.5 -24.5t-68.5 -68.5t-25 -101q0 -58 25 -101.5t68.5 -67.5t96.5 -24q71 0 122 36z" />
    <glyph glyph-name="Hcircumflex" unicode="&#x124;" horiz-adv-x="690" 
d="M312 903h67l137 -161h-78l-92 114l-92 -114h-79zM70 699h78v-310h394v310h78v-699h-78v323h-394v-323h-78v699z" />
    <glyph glyph-name="hcircumflex" unicode="&#x125;" horiz-adv-x="591" 
d="M212 945h67l137 -161h-78l-92 114l-92 -114h-79zM70 739h77v-329q69 85 191 85q95 0 141.5 -50t46.5 -134v-311h-77v304q0 62 -30 95.5t-96 33.5q-111 0 -176 -100v-333h-77v739z" />
    <glyph glyph-name="Hbar" unicode="&#x126;" horiz-adv-x="715" 
d="M77 512h-47v61h47v126h78v-126h394v126h78v-126h58v-61h-58v-512h-78v321h-394v-321h-78v512zM549 392v120h-394v-120h394z" />
    <glyph glyph-name="hbar" unicode="&#x127;" horiz-adv-x="598" 
d="M77 592h-47v58h47v89h77v-89h179v-58h-179v-182q69 85 191 85q95 0 141.5 -50t46.5 -134v-311h-77v304q0 62 -30 95.5t-96 33.5q-111 0 -176 -100v-333h-77v592z" />
    <glyph glyph-name="Itilde" unicode="&#x128;" horiz-adv-x="220" 
d="M-76 811q28 43 95 43q22 0 42 -6t51 -19q26 -12 46 -18.5t42 -6.5q29 0 52.5 12t42.5 40v-69q-28 -42 -95 -42q-25 0 -47 6.5t-50 19.5q-28 12 -45.5 18t-38.5 6q-28 0 -51 -12t-44 -41v69zM71 699h78v-699h-78v699z" />
    <glyph glyph-name="itilde" unicode="&#x129;" horiz-adv-x="217" 
d="M-77 604q28 43 95 43q22 0 42 -6t51 -19q26 -12 46 -18.5t42 -6.5q29 0 52.5 12t42.5 40v-69q-28 -42 -95 -42q-25 0 -47 6.5t-50 19.5q-28 12 -45.5 18t-38.5 6q-28 0 -51 -12t-44 -41v69zM70 480h77v-480h-77v480z" />
    <glyph glyph-name="Imacron" unicode="&#x12a;" horiz-adv-x="220" 
d="M-43 819h305v-57h-305v57zM71 699h78v-699h-78v699z" />
    <glyph glyph-name="imacron" unicode="&#x12b;" horiz-adv-x="217" 
d="M-44 612h305v-57h-305v57zM70 480h77v-480h-77v480z" />
    <glyph glyph-name="Ibreve" unicode="&#x12c;" horiz-adv-x="220" 
d="M8 778.5q-38 36.5 -38 93.5h60q0 -35 21.5 -55.5t58.5 -20.5t58.5 20.5t21.5 55.5h59q0 -57 -38 -93.5t-101 -36.5q-64 0 -102 36.5zM71 699h78v-699h-78v699z" />
    <glyph glyph-name="ibreve" unicode="&#x12d;" horiz-adv-x="217" 
d="M7 571.5q-38 36.5 -38 93.5h60q0 -35 21.5 -55.5t58.5 -20.5t58.5 20.5t21.5 55.5h59q0 -57 -38 -93.5t-101 -36.5q-64 0 -102 36.5zM70 480h77v-480h-77v480z" />
    <glyph glyph-name="Iogonek" unicode="&#x12e;" horiz-adv-x="220" 
d="M163 -149v-50q-25 -11 -66 -11q-42 0 -69.5 22.5t-27.5 64.5q0 37 21 69t54 54h-4v699h78v-699h-2q-39 -27 -59 -54t-20 -58q0 -25 11.5 -36t36.5 -11t47 10z" />
    <glyph glyph-name="iogonek" unicode="&#x12f;" horiz-adv-x="237" 
d="M84 598q-14 14 -14 34t14 34t34 14t34.5 -14t14.5 -34t-14.5 -34t-34.5 -14t-34 14zM171 -149v-50q-25 -11 -66 -11q-42 0 -69.5 22.5t-27.5 64.5q0 37 21 69t54 54h-3v480h77v-480h-2q-39 -27 -59 -54t-20 -58q0 -25 11.5 -36t36.5 -11t47 10z" />
    <glyph glyph-name="Idotaccent" unicode="&#x130;" horiz-adv-x="220" 
d="M76 756.5q-15 14.5 -15 34.5t15 34.5t35 14.5t34.5 -14.5t14.5 -34.5t-14.5 -34.5t-34.5 -14.5t-35 14.5zM71 699h78v-699h-78v699z" />
    <glyph glyph-name="dotlessi" unicode="&#x131;" horiz-adv-x="217" 
d="M70 480h77v-480h-77v480z" />
    <glyph glyph-name="IJ" unicode="&#x132;" horiz-adv-x="593" 
d="M71 699h78v-699h-78v699zM301.5 -11q-28.5 4 -44.5 11v68q15 -6 40.5 -9.5t45.5 -3.5q107 0 107 106v538h78v-544q0 -81 -47 -125.5t-124 -44.5q-27 0 -55.5 4z" />
    <glyph glyph-name="ij" unicode="&#x133;" horiz-adv-x="419" 
d="M84 598q-14 14 -14 34t14 34t34 14t34.5 -14t14.5 -34t-14.5 -34t-34.5 -14t-34 14zM266 598q-14 14 -14 34t14 34t34 14t34.5 -14t14.5 -34t-14.5 -34t-34.5 -14t-34 14zM80 480h77v-480h-77v480zM116 -222v65q26 -13 58 -13q48 0 68 23t20 74v553h77v-553
q0 -79 -41 -118.5t-113 -39.5q-42 0 -69 9z" />
    <glyph glyph-name="Jcircumflex" unicode="&#x134;" horiz-adv-x="366" 
d="M227 903h67l137 -161h-78l-92 114l-92 -114h-79zM74.5 -11q-28.5 4 -44.5 11v68q15 -6 40.5 -9.5t45.5 -3.5q107 0 107 106v538h78v-544q0 -81 -47 -125.5t-124 -44.5q-27 0 -55.5 4z" />
    <glyph glyph-name="jcircumflex" unicode="&#x135;" horiz-adv-x="223" 
d="M81 696h67l137 -161h-78l-92 114l-92 -114h-79zM-70 -222v65q26 -13 58 -13q48 0 68 23t20 74v553h77v-553q0 -79 -41 -118.5t-113 -39.5q-42 0 -69 9z" />
    <glyph glyph-name="Kcommaaccent" unicode="&#x136;" horiz-adv-x="655" 
d="M70 699h78v-699h-78v699zM181 355l327 344h96l-327 -344l348 -355h-96zM261 -63h81l-91 -197h-70z" />
    <glyph glyph-name="kcommaaccent" unicode="&#x137;" horiz-adv-x="550" 
d="M70 739h77v-739h-77v739zM164 242l235 238h98l-236 -238l259 -242h-98zM225 -63h81l-91 -197h-70z" />
    <glyph glyph-name="kgreenlandic" unicode="&#x138;" horiz-adv-x="546" 
d="M70 480h75v-480h-75v480zM165 240l235 240h92l-236 -240l259 -240h-92z" />
    <glyph glyph-name="Lacute" unicode="&#x139;" horiz-adv-x="545" 
d="M142 931h81l-80 -170h-69zM70 699h78v-633h372v-66h-450v699z" />
    <glyph glyph-name="lacute" unicode="&#x13a;" horiz-adv-x="217" 
d="M145 937h80l-81 -171h-69zM70 739h77v-739h-77v739z" />
    <glyph glyph-name="Lcommaaccent" unicode="&#x13b;" horiz-adv-x="545" 
d="M70 699h78v-633h372v-66h-450v699zM257 -63h81l-91 -197h-70z" />
    <glyph glyph-name="lcommaaccent" unicode="&#x13c;" horiz-adv-x="226" 
d="M77 739h77v-739h-77v739zM75 -63h81l-91 -197h-70z" />
    <glyph glyph-name="Lcaron" unicode="&#x13d;" horiz-adv-x="545" 
d="M70 699h78v-633h372v-66h-450v699zM341 699h81l-91 -197h-70z" />
    <glyph glyph-name="lcaron" unicode="&#x13e;" horiz-adv-x="397" 
d="M70 739h77v-739h-77v739zM281 739h81l-91 -197h-70z" />
    <glyph glyph-name="Ldot" unicode="&#x13f;" horiz-adv-x="545" 
d="M70 699h78v-633h372v-66h-450v699zM313 344.5q-15 14.5 -15 34.5t15 34.5t35 14.5t34.5 -14.5t14.5 -34.5t-14.5 -34.5t-34.5 -14.5t-35 14.5z" />
    <glyph glyph-name="ldot" unicode="&#x140;" horiz-adv-x="325" 
d="M70 739h77v-739h-77v739zM226 346.5q-15 14.5 -15 34.5t15 34.5t35 14.5t34.5 -14.5t14.5 -34.5t-14.5 -34.5t-34.5 -14.5t-35 14.5z" />
    <glyph glyph-name="Lslash" unicode="&#x141;" horiz-adv-x="600" 
d="M130 311l-110 -49v71l110 49v317h78v-282l168 75v-71l-168 -75v-280h372v-66h-450v311z" />
    <glyph glyph-name="lslash" unicode="&#x142;" horiz-adv-x="236" 
d="M296 413l-141 -63v-350h-77v316l-138 -62v71l138 62v352h77v-318l141 63v-71z" />
    <glyph glyph-name="Nacute" unicode="&#x143;" horiz-adv-x="678" 
d="M371 912h81l-80 -170h-69zM70 699h75l385 -566v566h78v-699h-75l-385 567v-567h-78v699z" />
    <glyph glyph-name="nacute" unicode="&#x144;" horiz-adv-x="591" 
d="M323 705h81l-80 -170h-69zM70 480h75v-72q35 45 85.5 66t107.5 21q95 0 141.5 -50t46.5 -134v-311h-77v304q0 62 -30 95.5t-96 33.5q-111 0 -176 -100v-333h-77v480z" />
    <glyph glyph-name="Ncommaaccent" unicode="&#x145;" horiz-adv-x="678" 
d="M70 699h75l385 -566v566h78v-699h-75l-385 567v-567h-78v699zM317 -63h81l-91 -197h-70z" />
    <glyph glyph-name="ncommaaccent" unicode="&#x146;" horiz-adv-x="591" 
d="M70 480h75v-72q35 45 85.5 66t107.5 21q95 0 141.5 -50t46.5 -134v-311h-77v304q0 62 -30 95.5t-96 33.5q-111 0 -176 -100v-333h-77v480zM270 -63h81l-91 -197h-70z" />
    <glyph glyph-name="Ncaron" unicode="&#x147;" horiz-adv-x="678" 
d="M173 903h79l92 -114l92 114h78l-137 -161h-67zM70 699h75l385 -566v566h78v-699h-75l-385 567v-567h-78v699z" />
    <glyph glyph-name="ncaron" unicode="&#x148;" horiz-adv-x="591" 
d="M128 696h79l92 -114l92 114h78l-137 -161h-67zM70 480h75v-72q35 45 85.5 66t107.5 21q95 0 141.5 -50t46.5 -134v-311h-77v304q0 62 -30 95.5t-96 33.5q-111 0 -176 -100v-333h-77v480z" />
    <glyph glyph-name="napostrophe" unicode="&#x149;" horiz-adv-x="682" 
d="M120 700h81l-91 -197h-70zM161 480h75v-72q35 45 85.5 66t107.5 21q95 0 141.5 -50t46.5 -134v-311h-77v304q0 62 -30 95.5t-96 33.5q-111 0 -176 -100v-333h-77v480z" />
    <glyph glyph-name="Eng" unicode="&#x14a;" horiz-adv-x="678" 
d="M608 699v-699v-73q0 -79 -41 -118.5t-113 -39.5q-42 0 -69 9v65q26 -13 58 -13q48 0 68 23t20 74v76l-383 564v-567h-78v699h75l385 -566v566h78z" />
    <glyph glyph-name="eng" unicode="&#x14b;" horiz-adv-x="591" 
d="M479.5 445q46.5 -50 46.5 -134v-311v-73q0 -79 -41 -118.5t-113 -39.5q-42 0 -69 9v65q26 -13 58 -13q48 0 68 23t20 74v295v82q0 62 -30 95.5t-96 33.5q-111 0 -176 -100v-333h-77v480h75v-72q35 45 85.5 66t107.5 21q95 0 141.5 -50z" />
    <glyph glyph-name="Omacron" unicode="&#x14c;" horiz-adv-x="832" 
d="M266 816h301v-54h-301v54zM229.5 30.5q-83.5 45.5 -131.5 128.5t-48 190t48 190t131 129t187 46t187 -46t131 -129t48 -190t-48 -190t-131.5 -128.5t-186.5 -45.5t-186.5 45.5zM562 91q66 36 104 102.5t38 155.5q0 88 -37.5 154.5t-103 103t-145.5 36.5q-81 0 -147 -36
t-104.5 -103t-38.5 -155q0 -89 38 -155.5t104 -102.5t146 -36t146 36z" />
    <glyph glyph-name="omacron" unicode="&#x14d;" horiz-adv-x="632" 
d="M166 609h301v-54h-301v54zM177.5 16q-60.5 31 -94 88.5t-33.5 134.5q0 76 34 134t94.5 90t137.5 32t137.5 -32t94.5 -90t34 -134q0 -77 -33.5 -134.5t-94 -88.5t-138.5 -31t-138.5 31zM453.5 98.5q51.5 52.5 51.5 140.5q0 89 -51.5 141.5t-137.5 52.5t-137.5 -52.5
t-51.5 -141.5q0 -88 51.5 -140.5t137.5 -52.5t137.5 52.5z" />
    <glyph glyph-name="Obreve" unicode="&#x14e;" horiz-adv-x="832" 
d="M315 778.5q-38 36.5 -38 93.5h60q0 -35 21.5 -55.5t58.5 -20.5t58.5 20.5t21.5 55.5h59q0 -57 -38 -93.5t-101 -36.5q-64 0 -102 36.5zM229.5 30.5q-83.5 45.5 -131.5 128.5t-48 190t48 190t131 129t187 46t187 -46t131 -129t48 -190t-48 -190t-131.5 -128.5
t-186.5 -45.5t-186.5 45.5zM562 91q66 36 104 102.5t38 155.5q0 88 -37.5 154.5t-103 103t-145.5 36.5q-81 0 -147 -36t-104.5 -103t-38.5 -155q0 -89 38 -155.5t104 -102.5t146 -36t146 36z" />
    <glyph glyph-name="obreve" unicode="&#x14f;" horiz-adv-x="632" 
d="M215 571.5q-38 36.5 -38 93.5h60q0 -35 21.5 -55.5t58.5 -20.5t58.5 20.5t21.5 55.5h59q0 -57 -38 -93.5t-101 -36.5q-64 0 -102 36.5zM177.5 16q-60.5 31 -94 88.5t-33.5 134.5q0 76 34 134t94.5 90t137.5 32t137.5 -32t94.5 -90t34 -134q0 -77 -33.5 -134.5t-94 -88.5
t-138.5 -31t-138.5 31zM453.5 98.5q51.5 52.5 51.5 140.5q0 89 -51.5 141.5t-137.5 52.5t-137.5 -52.5t-51.5 -141.5q0 -88 51.5 -140.5t137.5 -52.5t137.5 52.5z" />
    <glyph glyph-name="Ohungarumlaut" unicode="&#x150;" horiz-adv-x="832" 
d="M346 912h81l-80 -170h-69zM536 912h81l-80 -170h-69zM229.5 30.5q-83.5 45.5 -131.5 128.5t-48 190t48 190t131 129t187 46t187 -46t131 -129t48 -190t-48 -190t-131.5 -128.5t-186.5 -45.5t-186.5 45.5zM562 91q66 36 104 102.5t38 155.5q0 88 -37.5 154.5t-103 103
t-145.5 36.5q-81 0 -147 -36t-104.5 -103t-38.5 -155q0 -89 38 -155.5t104 -102.5t146 -36t146 36z" />
    <glyph glyph-name="ohungarumlaut" unicode="&#x151;" horiz-adv-x="632" 
d="M248 705h81l-80 -170h-69zM438 705h81l-80 -170h-69zM177.5 16q-60.5 31 -94 88.5t-33.5 134.5q0 76 34 134t94.5 90t137.5 32t137.5 -32t94.5 -90t34 -134q0 -77 -33.5 -134.5t-94 -88.5t-138.5 -31t-138.5 31zM453.5 98.5q51.5 52.5 51.5 140.5q0 89 -51.5 141.5
t-137.5 52.5t-137.5 -52.5t-51.5 -141.5q0 -88 51.5 -140.5t137.5 -52.5t137.5 52.5z" />
    <glyph glyph-name="OE" unicode="&#x152;" horiz-adv-x="889" 
d="M231.5 42q-84.5 42 -133 121t-48.5 186t48 186.5t133 121.5t191 42h417v-66h-318v-250h226v-66h-226v-251h318v-66h-417q-106 0 -190.5 42zM443 66v567h-26q-81 0 -147 -33.5t-104 -98t-38 -152.5t38.5 -152t104.5 -97.5t146 -33.5h26z" />
    <glyph glyph-name="oe" unicode="&#x153;" horiz-adv-x="1067" 
d="M1017 210h-436q4 -82 60.5 -123t153.5 -41q47 0 92.5 8.5t81.5 23.5v-65q-30 -12 -81.5 -20t-100.5 -8q-85 0 -147 29t-96 84q-33 -54 -92.5 -83.5t-135.5 -29.5q-78 0 -138.5 31t-94 88.5t-33.5 134.5q0 76 34 134t94.5 90t137.5 32q74 0 133 -29.5t94 -83.5
q30 54 86 83.5t134 29.5q82 0 139 -31.5t86 -86.5t29 -125v-42zM453.5 98.5q51.5 52.5 51.5 140.5q0 89 -51.5 141.5t-137.5 52.5t-137.5 -52.5t-51.5 -141.5q0 -88 51.5 -140.5t137.5 -52.5t137.5 52.5zM945 265q-2 78 -48 123t-135 45q-87 0 -133 -46.5t-48 -121.5h364z
" />
    <glyph glyph-name="Racute" unicode="&#x154;" horiz-adv-x="612" 
d="M303 912h81l-80 -170h-69zM70 699h270q109 0 165.5 -51t56.5 -151q0 -76 -44.5 -129t-123.5 -67l166 -301h-81l-164 297h-167v-297h-78v699zM330 363q72 0 113 34t41 100q0 74 -40.5 105t-113.5 31h-182v-270h182z" />
    <glyph glyph-name="racute" unicode="&#x155;" horiz-adv-x="392" 
d="M206 705h81l-80 -170h-69zM70 480h75v-94q58 94 217 94v-62q-174 0 -215 -115v-303h-77v480z" />
    <glyph glyph-name="Rcommaaccent" unicode="&#x156;" horiz-adv-x="612" 
d="M70 699h270q109 0 165.5 -51t56.5 -151q0 -76 -44.5 -129t-123.5 -67l166 -301h-81l-164 297h-167v-297h-78v699zM330 363q72 0 113 34t41 100q0 74 -40.5 105t-113.5 31h-182v-270h182zM254 -63h81l-91 -197h-70z" />
    <glyph glyph-name="rcommaaccent" unicode="&#x157;" horiz-adv-x="392" 
d="M70 480h75v-94q58 94 217 94v-62q-174 0 -215 -115v-303h-77v480zM69 -63h81l-91 -197h-70z" />
    <glyph glyph-name="Rcaron" unicode="&#x158;" horiz-adv-x="612" 
d="M114 903h79l92 -114l92 114h78l-137 -161h-67zM70 699h270q109 0 165.5 -51t56.5 -151q0 -76 -44.5 -129t-123.5 -67l166 -301h-81l-164 297h-167v-297h-78v699zM330 363q72 0 113 34t41 100q0 74 -40.5 105t-113.5 31h-182v-270h182z" />
    <glyph glyph-name="rcaron" unicode="&#x159;" horiz-adv-x="392" 
d="M6 696h79l92 -114l92 114h78l-137 -161h-67zM70 480h75v-94q58 94 217 94v-62q-174 0 -215 -115v-303h-77v480z" />
    <glyph glyph-name="Sacute" unicode="&#x15a;" horiz-adv-x="555" 
d="M310 912h81l-80 -170h-69zM142 -5q-56 10 -92 27v74q94 -41 202 -41q90 0 132.5 29t42.5 87q0 41 -17.5 65t-50.5 40.5t-114 49.5q-99 40 -143.5 87.5t-44.5 120.5q0 53 28.5 94t80.5 63.5t120 22.5q55 0 99.5 -8.5t87.5 -27.5v-71q-84 37 -176 37q-80 0 -121 -29
t-41 -81q0 -35 17 -60t53.5 -46t100.5 -46q72 -28 113 -52.5t63.5 -62t22.5 -96.5q0 -89 -63 -137.5t-186 -48.5q-58 0 -114 10z" />
    <glyph glyph-name="sacute" unicode="&#x15b;" horiz-adv-x="479" 
d="M258 705h81l-80 -170h-69zM136 -1.5q-54 13.5 -84 33.5v65q38 -23 87.5 -37t95.5 -14q62 0 89.5 17.5t27.5 52.5q0 27 -12 42.5t-40 27.5t-87 28q-58 16 -92.5 33.5t-52.5 44.5t-18 69q0 65 52.5 99.5t139.5 34.5q47 0 88.5 -8.5t69.5 -23.5v-65q-29 16 -70 25.5t-85 9.5
q-58 0 -88 -17t-30 -55q0 -26 10.5 -40t39 -25.5t91.5 -28.5q90 -25 125.5 -58.5t35.5 -92.5q0 -61 -47.5 -96t-144.5 -35q-47 0 -101 13.5z" />
    <glyph glyph-name="Scircumflex" unicode="&#x15c;" horiz-adv-x="555" 
d="M254 903h67l137 -161h-78l-92 114l-92 -114h-79zM142 -5q-56 10 -92 27v74q94 -41 202 -41q90 0 132.5 29t42.5 87q0 41 -17.5 65t-50.5 40.5t-114 49.5q-99 40 -143.5 87.5t-44.5 120.5q0 53 28.5 94t80.5 63.5t120 22.5q55 0 99.5 -8.5t87.5 -27.5v-71q-84 37 -176 37
q-80 0 -121 -29t-41 -81q0 -35 17 -60t53.5 -46t100.5 -46q72 -28 113 -52.5t63.5 -62t22.5 -96.5q0 -89 -63 -137.5t-186 -48.5q-58 0 -114 10z" />
    <glyph glyph-name="scircumflex" unicode="&#x15d;" horiz-adv-x="479" 
d="M208 696h67l137 -161h-78l-92 114l-92 -114h-79zM136 -1.5q-54 13.5 -84 33.5v65q38 -23 87.5 -37t95.5 -14q62 0 89.5 17.5t27.5 52.5q0 27 -12 42.5t-40 27.5t-87 28q-58 16 -92.5 33.5t-52.5 44.5t-18 69q0 65 52.5 99.5t139.5 34.5q47 0 88.5 -8.5t69.5 -23.5v-65
q-29 16 -70 25.5t-85 9.5q-58 0 -88 -17t-30 -55q0 -26 10.5 -40t39 -25.5t91.5 -28.5q90 -25 125.5 -58.5t35.5 -92.5q0 -61 -47.5 -96t-144.5 -35q-47 0 -101 13.5z" />
    <glyph glyph-name="Scedilla" unicode="&#x15e;" horiz-adv-x="555" 
d="M453.5 43.5q-51.5 -47.5 -151.5 -56.5l-19 -47q93 -12 93 -92q0 -42 -33.5 -69t-90.5 -27q-21 0 -41.5 3t-31.5 7v48q10 -4 26 -7t31 -3q68 0 68 50q0 29 -23.5 43t-79.5 14l30 78q-52 2 -100.5 12t-80.5 25v74q94 -41 202 -41q90 0 132.5 29t42.5 87q0 41 -17.5 65
t-50.5 40.5t-114 49.5q-99 40 -143.5 87.5t-44.5 120.5q0 53 28.5 94t80.5 63.5t120 22.5q55 0 99.5 -8.5t87.5 -27.5v-71q-84 37 -176 37q-80 0 -121 -29t-41 -81q0 -35 17 -60t53.5 -46t100.5 -46q72 -28 113 -52.5t63.5 -62t22.5 -96.5q0 -80 -51.5 -127.5z" />
    <glyph glyph-name="scedilla" unicode="&#x15f;" horiz-adv-x="479" 
d="M389 26.5q-40 -34.5 -122 -40.5l-18 -46q93 -12 93 -92q0 -42 -33.5 -69t-90.5 -27q-21 0 -41.5 3t-31.5 7v48q10 -4 26 -7t31 -3q68 0 68 50q0 29 -23.5 43t-79.5 14l30 80q-41 5 -81 17t-64 28v65q38 -23 87.5 -37t95.5 -14q62 0 89.5 17.5t27.5 52.5q0 27 -12 42.5
t-40 27.5t-87 28q-58 16 -92.5 33.5t-52.5 44.5t-18 69q0 65 52.5 99.5t139.5 34.5q47 0 88.5 -8.5t69.5 -23.5v-65q-29 16 -70 25.5t-85 9.5q-58 0 -88 -17t-30 -55q0 -26 10.5 -40t39 -25.5t91.5 -28.5q90 -25 125.5 -58.5t35.5 -92.5q0 -55 -40 -89.5z" />
    <glyph glyph-name="Scaron" unicode="&#x160;" horiz-adv-x="555" 
d="M126 903h79l92 -114l92 114h78l-137 -161h-67zM142 -5q-56 10 -92 27v74q94 -41 202 -41q90 0 132.5 29t42.5 87q0 41 -17.5 65t-50.5 40.5t-114 49.5q-99 40 -143.5 87.5t-44.5 120.5q0 53 28.5 94t80.5 63.5t120 22.5q55 0 99.5 -8.5t87.5 -27.5v-71q-84 37 -176 37
q-80 0 -121 -29t-41 -81q0 -35 17 -60t53.5 -46t100.5 -46q72 -28 113 -52.5t63.5 -62t22.5 -96.5q0 -89 -63 -137.5t-186 -48.5q-58 0 -114 10z" />
    <glyph glyph-name="scaron" unicode="&#x161;" horiz-adv-x="479" 
d="M69 696h79l92 -114l92 114h78l-137 -161h-67zM136 -1.5q-54 13.5 -84 33.5v65q38 -23 87.5 -37t95.5 -14q62 0 89.5 17.5t27.5 52.5q0 27 -12 42.5t-40 27.5t-87 28q-58 16 -92.5 33.5t-52.5 44.5t-18 69q0 65 52.5 99.5t139.5 34.5q47 0 88.5 -8.5t69.5 -23.5v-65
q-29 16 -70 25.5t-85 9.5q-58 0 -88 -17t-30 -55q0 -26 10.5 -40t39 -25.5t91.5 -28.5q90 -25 125.5 -58.5t35.5 -92.5q0 -61 -47.5 -96t-144.5 -35q-47 0 -101 13.5z" />
    <glyph glyph-name="uni0162" unicode="&#x162;" horiz-adv-x="586" 
d="M329 0l-24 -60q93 -12 93 -92q0 -42 -33.5 -69t-90.5 -27q-21 0 -41.5 3t-31.5 7v48q10 -4 26 -7t31 -3q68 0 68 50q0 29 -23.5 43t-79.5 14l35 93h-4v633h-224v66h526v-66h-224v-633h-3z" />
    <glyph glyph-name="uni0163" unicode="&#x163;" horiz-adv-x="365" 
d="M340 -152q0 -42 -33.5 -69t-90.5 -27q-21 0 -41.5 3t-31.5 7v48q10 -4 26 -7t31 -3q68 0 68 50q0 29 -23.5 43t-79.5 14l32 85q-44 13 -68 50.5t-24 96.5v281h-75v60h75v144h77v-144h121v-60h-121v-283q0 -50 20 -70.5t73 -20.5q26 0 55 12v-63q-27 -9 -65 -10l-18 -45
q93 -12 93 -92z" />
    <glyph glyph-name="Tcaron" unicode="&#x164;" horiz-adv-x="586" 
d="M123 903h79l92 -114l92 114h78l-137 -161h-67zM254 633h-224v66h526v-66h-224v-633h-78v633z" />
    <glyph glyph-name="tcaron" unicode="&#x165;" horiz-adv-x="385" 
d="M319 781h81l-91 -197h-70zM142.5 25q-37.5 40 -37.5 114v281h-75v60h75v144h77v-144h121v-60h-121v-283q0 -50 20 -70.5t73 -20.5q26 0 55 12v-63q-33 -10 -82 -10q-68 0 -105.5 40z" />
    <glyph glyph-name="Tbar" unicode="&#x166;" horiz-adv-x="586" 
d="M332 633v-263h131v-65h-131v-305h-78v305h-132v65h132v263h-224v66h526v-66h-224z" />
    <glyph glyph-name="tbar" unicode="&#x167;" horiz-adv-x="366" 
d="M143.5 23.5q-37.5 38.5 -37.5 112.5v102h-76v48h76v139h-75v55h75v144h77v-144h122v-55h-122v-139h121v-48h-121v-95q0 -50 22.5 -73.5t70.5 -23.5q28 0 55 11v-61q-36 -11 -82 -11q-68 0 -105.5 38.5z" />
    <glyph glyph-name="Utilde" unicode="&#x168;" horiz-adv-x="688" 
d="M159 811q28 43 95 43q22 0 42 -6t51 -19q26 -12 46 -18.5t42 -6.5q29 0 52.5 12t42.5 40v-69q-28 -42 -95 -42q-25 0 -47 6.5t-50 19.5q-28 12 -45.5 18t-38.5 6q-28 0 -51 -12t-44 -41v69zM135.5 55q-70.5 70 -70.5 195v449h78v-455q0 -95 53 -142t148 -47t148 47
t53 142v455h78v-449q0 -125 -70.5 -195t-208.5 -70t-208.5 70z" />
    <glyph glyph-name="utilde" unicode="&#x169;" horiz-adv-x="591" 
d="M114 604q28 43 95 43q22 0 42 -6t51 -19q26 -12 46 -18.5t42 -6.5q29 0 52.5 12t42.5 40v-69q-28 -42 -95 -42q-25 0 -47 6.5t-50 19.5q-28 12 -45.5 18t-38.5 6q-28 0 -51 -12t-44 -41v69zM116.5 37q-51.5 52 -51.5 139v304h77v-308q0 -126 131 -126q55 0 96.5 24
t74.5 76v334h77v-480h-75v72q-65 -87 -182 -87q-96 0 -147.5 52z" />
    <glyph glyph-name="Umacron" unicode="&#x16a;" horiz-adv-x="688" 
d="M193 816h301v-54h-301v54zM135.5 55q-70.5 70 -70.5 195v449h78v-455q0 -95 53 -142t148 -47t148 47t53 142v455h78v-449q0 -125 -70.5 -195t-208.5 -70t-208.5 70z" />
    <glyph glyph-name="umacron" unicode="&#x16b;" horiz-adv-x="591" 
d="M144 609h301v-54h-301v54zM116.5 37q-51.5 52 -51.5 139v304h77v-308q0 -126 131 -126q55 0 96.5 24t74.5 76v334h77v-480h-75v72q-65 -87 -182 -87q-96 0 -147.5 52z" />
    <glyph glyph-name="Ubreve" unicode="&#x16c;" horiz-adv-x="688" 
d="M243 778.5q-38 36.5 -38 93.5h60q0 -35 21.5 -55.5t58.5 -20.5t58.5 20.5t21.5 55.5h59q0 -57 -38 -93.5t-101 -36.5q-64 0 -102 36.5zM135.5 55q-70.5 70 -70.5 195v449h78v-455q0 -95 53 -142t148 -47t148 47t53 142v455h78v-449q0 -125 -70.5 -195t-208.5 -70
t-208.5 70z" />
    <glyph glyph-name="ubreve" unicode="&#x16d;" horiz-adv-x="591" 
d="M190 571.5q-38 36.5 -38 93.5h60q0 -35 21.5 -55.5t58.5 -20.5t58.5 20.5t21.5 55.5h59q0 -57 -38 -93.5t-101 -36.5q-64 0 -102 36.5zM116.5 37q-51.5 52 -51.5 139v304h77v-308q0 -126 131 -126q55 0 96.5 24t74.5 76v334h77v-480h-75v72q-65 -87 -182 -87
q-96 0 -147.5 52z" />
    <glyph glyph-name="Uring" unicode="&#x16e;" horiz-adv-x="688" 
d="M267.5 773.5q-31.5 31.5 -31.5 76.5q0 44 31.5 76t76.5 32q44 0 76 -32t32 -76q0 -45 -32 -76.5t-76 -31.5q-45 0 -76.5 31.5zM384 809.5q17 17.5 17 40.5t-17 40t-40 17q-24 0 -40.5 -17t-16.5 -40t17 -40.5t40 -17.5t40 17.5zM135.5 55q-70.5 70 -70.5 195v449h78v-455
q0 -95 53 -142t148 -47t148 47t53 142v455h78v-449q0 -125 -70.5 -195t-208.5 -70t-208.5 70z" />
    <glyph glyph-name="uring" unicode="&#x16f;" horiz-adv-x="591" 
d="M217.5 566.5q-31.5 31.5 -31.5 76.5q0 44 31.5 76t76.5 32q44 0 76 -32t32 -76q0 -45 -32 -76.5t-76 -31.5q-45 0 -76.5 31.5zM334 602.5q17 17.5 17 40.5t-17 40t-40 17q-24 0 -40.5 -17t-16.5 -40t17 -40.5t40 -17.5t40 17.5zM116.5 37q-51.5 52 -51.5 139v304h77v-308
q0 -126 131 -126q55 0 96.5 24t74.5 76v334h77v-480h-75v72q-65 -87 -182 -87q-96 0 -147.5 52z" />
    <glyph glyph-name="Uhungarumlaut" unicode="&#x170;" horiz-adv-x="688" 
d="M269 912h81l-80 -170h-69zM459 912h81l-80 -170h-69zM135.5 55q-70.5 70 -70.5 195v449h78v-455q0 -95 53 -142t148 -47t148 47t53 142v455h78v-449q0 -125 -70.5 -195t-208.5 -70t-208.5 70z" />
    <glyph glyph-name="uhungarumlaut" unicode="&#x171;" horiz-adv-x="591" 
d="M224 705h81l-80 -170h-69zM414 705h81l-80 -170h-69zM116.5 37q-51.5 52 -51.5 139v304h77v-308q0 -126 131 -126q55 0 96.5 24t74.5 76v334h77v-480h-75v72q-65 -87 -182 -87q-96 0 -147.5 52z" />
    <glyph glyph-name="Uogonek" unicode="&#x172;" horiz-adv-x="688" 
d="M623 699v-449q0 -116 -61 -185t-181 -79q-60 -46 -60 -98q0 -25 11.5 -36t36.5 -11t47 10v-50q-25 -11 -66 -11q-42 0 -69.5 22.5t-27.5 64.5q0 31 15 59t41 50q-121 9 -182.5 78t-61.5 186v449h78v-455q0 -95 53 -142t148 -47t148 47t53 142v455h78z" />
    <glyph glyph-name="uogonek" unicode="&#x173;" horiz-adv-x="580" 
d="M535 -149v-50q-25 -11 -66 -11q-42 0 -69.5 22.5t-27.5 64.5q0 37 21 69t54 54h-1v72q-65 -87 -182 -87q-96 0 -147.5 52t-51.5 139v304h77v-308q0 -126 131 -126q55 0 96.5 24t74.5 76v334h77v-480h-2q-39 -27 -59 -54t-20 -58q0 -25 11.5 -36t36.5 -11t47 10z" />
    <glyph glyph-name="Wcircumflex" unicode="&#x174;" horiz-adv-x="1009" 
d="M471 903h67l137 -161h-78l-92 114l-92 -114h-79zM50 699h81l172 -567l172 567h62l169 -568l172 568h81l-209 -699h-76l-170 571l-169 -571h-76z" />
    <glyph glyph-name="wcircumflex" unicode="&#x175;" horiz-adv-x="806" 
d="M370 696h67l137 -161h-78l-92 114l-92 -114h-79zM50 480h80l119 -387l117 387h73l118 -387l118 387h81l-154 -480h-79l-120 391l-120 -391h-80z" />
    <glyph glyph-name="Ycircumflex" unicode="&#x176;" horiz-adv-x="686" 
d="M310 903h67l137 -161h-78l-92 114l-92 -114h-79zM304 265l-254 434h83l210 -363l211 363h82l-254 -434v-265h-78v265z" />
    <glyph glyph-name="ycircumflex" unicode="&#x177;" horiz-adv-x="575" 
d="M271 696h67l137 -161h-78l-92 114l-92 -114h-79zM78 -189v62q11 -4 31.5 -7t34.5 -3q34 0 55 18t38 60l26 62l-213 477h82l172 -388l159 388h82l-222 -544q-28 -69 -65.5 -101.5t-97.5 -32.5q-46 0 -82 9z" />
    <glyph glyph-name="Ydieresis" unicode="&#x178;" horiz-adv-x="686" 
d="M200 756.5q-15 14.5 -15 34.5t15 34.5t35 14.5t34.5 -14.5t14.5 -34.5t-14.5 -34.5t-34.5 -14.5t-35 14.5zM417 756.5q-15 14.5 -15 34.5t15 34.5t35 14.5t34.5 -14.5t14.5 -34.5t-14.5 -34.5t-34.5 -14.5t-35 14.5zM304 265l-254 434h83l210 -363l211 363h82l-254 -434
v-265h-78v265z" />
    <glyph glyph-name="Zacute" unicode="&#x179;" horiz-adv-x="617" 
d="M318 912h81l-80 -170h-69zM50 55l408 578h-398v66h492v-56l-407 -578h422v-65h-517v55z" />
    <glyph glyph-name="zacute" unicode="&#x17a;" horiz-adv-x="498" 
d="M265 705h81l-80 -170h-69zM50 52l291 368h-286v60h380v-52l-291 -368h304v-60h-398v52z" />
    <glyph glyph-name="Zdotaccent" unicode="&#x17b;" horiz-adv-x="617" 
d="M264 756.5q-15 14.5 -15 34.5t15 34.5t35 14.5t34.5 -14.5t14.5 -34.5t-14.5 -34.5t-34.5 -14.5t-35 14.5zM50 55l408 578h-398v66h492v-56l-407 -578h422v-65h-517v55z" />
    <glyph glyph-name="zdotaccent" unicode="&#x17c;" horiz-adv-x="498" 
d="M210 549.5q-15 14.5 -15 34.5t15 34.5t35 14.5t34.5 -14.5t14.5 -34.5t-14.5 -34.5t-34.5 -14.5t-35 14.5zM50 52l291 368h-286v60h380v-52l-291 -368h304v-60h-398v52z" />
    <glyph glyph-name="Zcaron" unicode="&#x17d;" horiz-adv-x="617" 
d="M139 903h79l92 -114l92 114h78l-137 -161h-67zM50 55l408 578h-398v66h492v-56l-407 -578h422v-65h-517v55z" />
    <glyph glyph-name="zcaron" unicode="&#x17e;" horiz-adv-x="498" 
d="M80 696h79l92 -114l92 114h78l-137 -161h-67zM50 52l291 368h-286v60h380v-52l-291 -368h304v-60h-398v52z" />
    <glyph glyph-name="uni018F" unicode="&#x18f;" horiz-adv-x="821" 
d="M212.5 30q-81.5 45 -122 123.5t-40.5 177.5v45h637q-5 131 -86 199t-235 68q-66 0 -132 -12t-115 -31v70q44 18 116 31t140 13q188 0 292 -95.5t104 -268.5q0 -111 -41.5 -193t-122.5 -127t-197 -45t-197.5 45zM615 125.5q70 70.5 73 189.5h-561q2 -119 71.5 -189.5
t209.5 -70.5q137 0 207 70.5z" />
    <glyph glyph-name="florin" unicode="&#x192;" horiz-adv-x="526" 
d="M-85 -220l9 64q25 -11 57 -11q50 0 78 24t39 74l103 489h-84l8 60h89l22 106q33 158 188 158q44 0 72 -11l-9 -61q-23 10 -59 10q-51 0 -77 -22.5t-38 -77.5l-22 -102h138l-8 -60h-143l-104 -492q-18 -82 -64.5 -120t-123.5 -38q-44 0 -71 10z" />
    <glyph glyph-name="Ohorn" unicode="&#x1a0;" horiz-adv-x="853" 
d="M229.5 30.5q-83.5 45.5 -131.5 128.5t-48 190t48 190t131 129t187 46q74 0 138 -23.5t113 -67.5q45 1 67.5 23.5t22.5 64.5v36h71v-40q0 -50 -30.5 -89t-80.5 -52q65 -92 65 -217q0 -107 -48 -190t-131.5 -128.5t-186.5 -45.5t-186.5 45.5zM562 91q66 36 104 102.5
t38 155.5q0 88 -37.5 154.5t-103 103t-145.5 36.5q-81 0 -147 -36t-104.5 -103t-38.5 -155q0 -89 38 -155.5t104 -102.5t146 -36t146 36z" />
    <glyph glyph-name="ohorn" unicode="&#x1a1;" horiz-adv-x="665" 
d="M177.5 16q-60.5 31 -94 88.5t-33.5 134.5q0 76 34 134t94.5 90t137.5 32q54 0 100 -16t81 -45q38 6 59 29.5t21 58.5v36h63v-40q0 -46 -27.5 -81.5t-73.5 -49.5q43 -64 43 -148q0 -77 -33.5 -134.5t-94 -88.5t-138.5 -31t-138.5 31zM453.5 98.5q51.5 52.5 51.5 140.5
q0 89 -51.5 141.5t-137.5 52.5t-137.5 -52.5t-51.5 -141.5q0 -88 51.5 -140.5t137.5 -52.5t137.5 52.5z" />
    <glyph glyph-name="Uhorn" unicode="&#x1af;" horiz-adv-x="814" 
d="M135.5 55q-70.5 70 -70.5 195v449h78v-455q0 -95 53 -142t148 -47t148 47t53 142v455h78v-76q95 0 95 88v36h71v-40q0 -40 -19.5 -73.5t-57.5 -53t-89 -19.5v-311q0 -125 -70.5 -195t-208.5 -70t-208.5 70z" />
    <glyph glyph-name="uhorn" unicode="&#x1b0;" horiz-adv-x="699" 
d="M113 36q-48 51 -48 135v309h77v-302q0 -62 31.5 -97t99.5 -35q108 0 171 100v334h77v-47q41 1 65.5 25t24.5 62v38h63v-40q0 -58 -42 -97.5t-111 -40.5v-380h-75v77q-35 -48 -84 -70t-104 -22q-97 0 -145 51z" />
    <glyph glyph-name="uni01CD" unicode="&#x1cd;" horiz-adv-x="731" 
d="M195 903h79l92 -114l92 114h78l-137 -161h-67zM329 699h73l279 -699h-80l-75 187h-322l-74 -187h-80zM504 253l-139 356l-138 -356h277z" />
    <glyph glyph-name="uni01CE" unicode="&#x1ce;" horiz-adv-x="562" 
d="M121 696h79l92 -114l92 114h78l-137 -161h-67zM100.5 28.5q-50.5 43.5 -50.5 119.5q0 79 49 121.5t142 42.5q104 0 179 -43v36q0 65 -37 96.5t-117 31.5q-85 0 -157 -32v65q30 13 76 21t88 8q114 0 169 -51.5t55 -142.5v-301h-72v62q-63 -77 -187 -77q-87 0 -137.5 43.5z
M354.5 69.5q43.5 21.5 65.5 60.5v77q-39 23 -77.5 33.5t-86.5 10.5q-68 0 -98.5 -25.5t-30.5 -77.5q0 -100 130 -100q54 0 97.5 21.5z" />
    <glyph glyph-name="uni01CF" unicode="&#x1cf;" horiz-adv-x="220" 
d="M-60 903h79l92 -114l92 114h78l-137 -161h-67zM71 699h78v-699h-78v699z" />
    <glyph glyph-name="uni01D0" unicode="&#x1d0;" horiz-adv-x="217" 
d="M-62 696h79l92 -114l92 114h78l-137 -161h-67zM70 480h77v-480h-77v480z" />
    <glyph glyph-name="uni01D1" unicode="&#x1d1;" horiz-adv-x="832" 
d="M246 903h79l92 -114l92 114h78l-137 -161h-67zM229.5 30.5q-83.5 45.5 -131.5 128.5t-48 190t48 190t131 129t187 46t187 -46t131 -129t48 -190t-48 -190t-131.5 -128.5t-186.5 -45.5t-186.5 45.5zM562 91q66 36 104 102.5t38 155.5q0 88 -37.5 154.5t-103 103
t-145.5 36.5q-81 0 -147 -36t-104.5 -103t-38.5 -155q0 -89 38 -155.5t104 -102.5t146 -36t146 36z" />
    <glyph glyph-name="uni01D2" unicode="&#x1d2;" horiz-adv-x="632" 
d="M146 696h79l92 -114l92 114h78l-137 -161h-67zM177.5 16q-60.5 31 -94 88.5t-33.5 134.5q0 76 34 134t94.5 90t137.5 32t137.5 -32t94.5 -90t34 -134q0 -77 -33.5 -134.5t-94 -88.5t-138.5 -31t-138.5 31zM453.5 98.5q51.5 52.5 51.5 140.5q0 89 -51.5 141.5t-137.5 52.5
t-137.5 -52.5t-51.5 -141.5q0 -88 51.5 -140.5t137.5 -52.5t137.5 52.5z" />
    <glyph glyph-name="uni01D3" unicode="&#x1d3;" horiz-adv-x="688" 
d="M174 903h79l92 -114l92 114h78l-137 -161h-67zM135.5 55q-70.5 70 -70.5 195v449h78v-455q0 -95 53 -142t148 -47t148 47t53 142v455h78v-449q0 -125 -70.5 -195t-208.5 -70t-208.5 70z" />
    <glyph glyph-name="uni01D4" unicode="&#x1d4;" horiz-adv-x="591" 
d="M123 696h79l92 -114l92 114h78l-137 -161h-67zM116.5 37q-51.5 52 -51.5 139v304h77v-308q0 -126 131 -126q55 0 96.5 24t74.5 76v334h77v-480h-75v72q-65 -87 -182 -87q-96 0 -147.5 52z" />
    <glyph glyph-name="uni01D5" unicode="&#x1d5;" horiz-adv-x="688" 
d="M193 967h301v-54h-301v54zM200 756.5q-15 14.5 -15 34.5t15 34.5t35 14.5t34.5 -14.5t14.5 -34.5t-14.5 -34.5t-34.5 -14.5t-35 14.5zM417 756.5q-15 14.5 -15 34.5t15 34.5t35 14.5t34.5 -14.5t14.5 -34.5t-14.5 -34.5t-34.5 -14.5t-35 14.5zM135.5 55
q-70.5 70 -70.5 195v449h78v-455q0 -95 53 -142t148 -47t148 47t53 142v455h78v-449q0 -125 -70.5 -195t-208.5 -70t-208.5 70z" />
    <glyph glyph-name="uni01D6" unicode="&#x1d6;" horiz-adv-x="591" 
d="M142 750h301v-54h-301v54zM150 549.5q-15 14.5 -15 34.5t15 34.5t35 14.5t34.5 -14.5t14.5 -34.5t-14.5 -34.5t-34.5 -14.5t-35 14.5zM367 549.5q-15 14.5 -15 34.5t15 34.5t35 14.5t34.5 -14.5t14.5 -34.5t-14.5 -34.5t-34.5 -14.5t-35 14.5zM116.5 37
q-51.5 52 -51.5 139v304h77v-308q0 -126 131 -126q55 0 96.5 24t74.5 76v334h77v-480h-75v72q-65 -87 -182 -87q-96 0 -147.5 52z" />
    <glyph glyph-name="uni01D7" unicode="&#x1d7;" horiz-adv-x="688" 
d="M368 946h64l-63 -123h-54zM205 756.5q-15 14.5 -15 34.5t15 34.5t35 14.5t34.5 -14.5t14.5 -34.5t-14.5 -34.5t-34.5 -14.5t-35 14.5zM422 756.5q-15 14.5 -15 34.5t15 34.5t35 14.5t34.5 -14.5t14.5 -34.5t-14.5 -34.5t-34.5 -14.5t-35 14.5zM135.5 55
q-70.5 70 -70.5 195v449h78v-455q0 -95 53 -142t148 -47t148 47t53 142v455h78v-449q0 -125 -70.5 -195t-208.5 -70t-208.5 70z" />
    <glyph glyph-name="uni01D8" unicode="&#x1d8;" horiz-adv-x="591" 
d="M311 739h64l-63 -123h-54zM148 549.5q-15 14.5 -15 34.5t15 34.5t35 14.5t34.5 -14.5t14.5 -34.5t-14.5 -34.5t-34.5 -14.5t-35 14.5zM365 549.5q-15 14.5 -15 34.5t15 34.5t35 14.5t34.5 -14.5t14.5 -34.5t-14.5 -34.5t-34.5 -14.5t-35 14.5zM116.5 37
q-51.5 52 -51.5 139v304h77v-308q0 -126 131 -126q55 0 96.5 24t74.5 76v334h77v-480h-75v72q-65 -87 -182 -87q-96 0 -147.5 52z" />
    <glyph glyph-name="uni01D9" unicode="&#x1d9;" horiz-adv-x="688" 
d="M195 941h70l80 -84l80 84h69l-120 -122h-58zM200.5 756.5q-14.5 14.5 -14.5 34.5t14.5 34.5t34.5 14.5t35 -14.5t15 -34.5t-15 -34.5t-35 -14.5t-34.5 14.5zM417.5 756.5q-14.5 14.5 -14.5 34.5t14.5 34.5t34.5 14.5t35 -14.5t15 -34.5t-15 -34.5t-35 -14.5t-34.5 14.5z
M135.5 55q-70.5 70 -70.5 195v449h78v-455q0 -95 53 -142t148 -47t148 47t53 142v455h78v-449q0 -125 -70.5 -195t-208.5 -70t-208.5 70z" />
    <glyph glyph-name="uni01DA" unicode="&#x1da;" horiz-adv-x="591" 
d="M140 734h70l80 -84l80 84h69l-120 -122h-58zM145.5 549.5q-14.5 14.5 -14.5 34.5t14.5 34.5t34.5 14.5t35 -14.5t15 -34.5t-15 -34.5t-35 -14.5t-34.5 14.5zM362.5 549.5q-14.5 14.5 -14.5 34.5t14.5 34.5t34.5 14.5t35 -14.5t15 -34.5t-15 -34.5t-35 -14.5t-34.5 14.5z
M116.5 37q-51.5 52 -51.5 139v304h77v-308q0 -126 131 -126q55 0 96.5 24t74.5 76v334h77v-480h-75v72q-65 -87 -182 -87q-96 0 -147.5 52z" />
    <glyph glyph-name="uni01DB" unicode="&#x1db;" horiz-adv-x="688" 
d="M262 946h64l53 -123h-54zM202.5 756.5q-14.5 14.5 -14.5 34.5t14.5 34.5t34.5 14.5t35 -14.5t15 -34.5t-15 -34.5t-35 -14.5t-34.5 14.5zM419.5 756.5q-14.5 14.5 -14.5 34.5t14.5 34.5t34.5 14.5t35 -14.5t15 -34.5t-15 -34.5t-35 -14.5t-34.5 14.5zM135.5 55
q-70.5 70 -70.5 195v449h78v-455q0 -95 53 -142t148 -47t148 47t53 142v455h78v-449q0 -125 -70.5 -195t-208.5 -70t-208.5 70z" />
    <glyph glyph-name="uni01DC" unicode="&#x1dc;" horiz-adv-x="591" 
d="M206 739h64l53 -123h-54zM146.5 549.5q-14.5 14.5 -14.5 34.5t14.5 34.5t34.5 14.5t35 -14.5t15 -34.5t-15 -34.5t-35 -14.5t-34.5 14.5zM363.5 549.5q-14.5 14.5 -14.5 34.5t14.5 34.5t34.5 14.5t35 -14.5t15 -34.5t-15 -34.5t-35 -14.5t-34.5 14.5zM116.5 37
q-51.5 52 -51.5 139v304h77v-308q0 -126 131 -126q55 0 96.5 24t74.5 76v334h77v-480h-75v72q-65 -87 -182 -87q-96 0 -147.5 52z" />
    <glyph glyph-name="Gcaron" unicode="&#x1e6;" horiz-adv-x="720" 
d="M224 903h79l92 -114l92 114h78l-137 -161h-67zM227.5 30q-83.5 45 -130.5 127.5t-47 191.5t47 191.5t130.5 128t189.5 45.5q145 0 240 -76v-76q-90 81 -234 81q-85 0 -152 -36t-105 -102.5t-38 -155.5t38 -155.5t104.5 -102.5t150.5 -36q49 0 95 11.5t76 30.5v215h-147
v66h225v-314q-49 -41 -111.5 -60t-141.5 -19q-106 0 -189.5 45z" />
    <glyph glyph-name="gcaron" unicode="&#x1e7;" horiz-adv-x="656" 
d="M151 696h79l92 -114l92 114h78l-137 -161h-67zM224 -222q-46 8 -78 22v65q76 -34 172 -34q98 0 144.5 44.5t46.5 134.5v71q-65 -96 -206 -96q-71 0 -129 31.5t-91 89.5t-33 133q0 76 33 134t90 90t128 32q74 0 123 -22.5t87 -73.5v81h75v-460q0 -122 -66 -186t-202 -64
q-48 0 -94 8zM439 82q51 36 70 99v119q-20 63 -71 98t-121 35q-53 0 -96.5 -24.5t-68.5 -68.5t-25 -101q0 -58 25 -101.5t68.5 -67.5t96.5 -24q71 0 122 36z" />
    <glyph glyph-name="Aringacute" unicode="&#x1fa;" horiz-adv-x="731" 
d="M398 906h-69l68 136h81zM681 0h-80l-75 187h-322l-74 -187h-80l269 675q-28 13 -45 39t-17 59q0 44 31.5 76t76.5 32q44 0 76 -32t32 -76q0 -32 -17 -58t-45 -39zM324.5 813q-16.5 -17 -16.5 -40t17 -40.5t40 -17.5t40 17.5t17 40.5t-17 40t-40 17q-24 0 -40.5 -17z
M504 253l-139 356l-138 -356h277z" />
    <glyph glyph-name="aringacute" unicode="&#x1fb;" horiz-adv-x="562" 
d="M324 917h81l-80 -136h-69zM214.5 566.5q-31.5 31.5 -31.5 76.5q0 44 31.5 76t76.5 32q44 0 76 -32t32 -76q0 -45 -32 -76.5t-76 -31.5q-45 0 -76.5 31.5zM331 602.5q17 17.5 17 40.5t-17 40t-40 17q-24 0 -40.5 -17t-16.5 -40t17 -40.5t40 -17.5t40 17.5zM100.5 28.5
q-50.5 43.5 -50.5 119.5q0 79 49 121.5t142 42.5q104 0 179 -43v36q0 65 -37 96.5t-117 31.5q-85 0 -157 -32v65q30 13 76 21t88 8q114 0 169 -51.5t55 -142.5v-301h-72v62q-63 -77 -187 -77q-87 0 -137.5 43.5zM354.5 69.5q43.5 21.5 65.5 60.5v77q-39 23 -77.5 33.5
t-86.5 10.5q-68 0 -98.5 -25.5t-30.5 -77.5q0 -100 130 -100q54 0 97.5 21.5z" />
    <glyph glyph-name="AEacute" unicode="&#x1fc;" horiz-adv-x="920" 
d="M599 912h81l-80 -170h-69zM406 699h464v-66h-328v-250h236v-66h-236v-251h328v-66h-406v187h-239l-95 -187h-80zM464 253v380h-13l-192 -380h205z" />
    <glyph glyph-name="aeacute" unicode="&#x1fd;" horiz-adv-x="975" 
d="M514 705h81l-80 -170h-69zM100.5 28.5q-50.5 43.5 -50.5 119.5q0 79 49 121.5t142 42.5q104 0 179 -43v36q0 65 -37 96.5t-117 31.5q-85 0 -157 -32v65q30 13 76 21t88 8q138 0 193 -90q66 90 205 90q82 0 139 -31.5t86 -86.5t29 -125v-42h-433q4 -82 59.5 -123
t151.5 -41q47 0 92.5 8.5t81.5 23.5v-65q-30 -12 -81.5 -20t-100.5 -8q-158 0 -230 102q-81 -102 -227 -102q-87 0 -137.5 43.5zM853 265q-2 78 -48 123t-135 45q-86 0 -131 -46.5t-47 -121.5h361zM354.5 69.5q43.5 21.5 65.5 60.5v77q-39 23 -77.5 33.5t-86.5 10.5
q-68 0 -98.5 -25.5t-30.5 -77.5q0 -100 130 -100q54 0 97.5 21.5z" />
    <glyph glyph-name="Oslashacute" unicode="&#x1fe;" horiz-adv-x="832" 
d="M451 925h81l-80 -170h-69zM250 20q-93 43 -146.5 129t-53.5 200q0 107 48 190t131 129t187 46q54 0 107 -14l34 84h76l-44 -109q90 -44 141.5 -129t51.5 -197q0 -107 -48 -190t-131.5 -128.5t-186.5 -45.5q-52 0 -100 12l-33 -83h-76zM496 633q-36 10 -80 10
q-81 -1 -146.5 -37t-103.5 -102.5t-38 -154.5q0 -91 40 -159t109 -103zM562 91q66 36 104 102.5t38 155.5q0 88 -38 155t-104 103l-219 -544q37 -8 73 -8q80 0 146 36z" />
    <glyph glyph-name="oslashacute" unicode="&#x1ff;" horiz-adv-x="632" 
d="M332 705h81l-80 -170h-69zM186 11q-64 30 -100 89t-36 139q0 76 34 134t94.5 90t137.5 32q32 0 62 -6l31 77h76l-40 -99q64 -30 100.5 -90t36.5 -138q0 -77 -33.5 -134.5t-94 -88.5t-138.5 -31q-33 0 -62 6l-31 -77h-76zM354 430q-18 3 -38 3q-86 0 -137.5 -52.5
t-51.5 -141.5q0 -57 21.5 -99.5t61.5 -66.5zM453.5 98.5q51.5 52.5 51.5 140.5q0 57 -22 100.5t-62 66.5l-144 -357q19 -3 39 -3q86 0 137.5 52.5z" />
    <glyph glyph-name="Scommaaccent" unicode="&#x218;" horiz-adv-x="555" 
d="M142 -5q-56 10 -92 27v74q94 -41 202 -41q90 0 132.5 29t42.5 87q0 41 -17.5 65t-50.5 40.5t-114 49.5q-99 40 -143.5 87.5t-44.5 120.5q0 53 28.5 94t80.5 63.5t120 22.5q55 0 99.5 -8.5t87.5 -27.5v-71q-84 37 -176 37q-80 0 -121 -29t-41 -81q0 -35 17 -60t53.5 -46
t100.5 -46q72 -28 113 -52.5t63.5 -62t22.5 -96.5q0 -89 -63 -137.5t-186 -48.5q-58 0 -114 10zM240 -63h81l-92 -196h-70z" />
    <glyph glyph-name="scommaaccent" unicode="&#x219;" horiz-adv-x="479" 
d="M136 -1.5q-54 13.5 -84 33.5v65q38 -23 87.5 -37t95.5 -14q62 0 89.5 17.5t27.5 52.5q0 27 -12 42.5t-40 27.5t-87 28q-58 16 -92.5 33.5t-52.5 44.5t-18 69q0 65 52.5 99.5t139.5 34.5q47 0 88.5 -8.5t69.5 -23.5v-65q-29 16 -70 25.5t-85 9.5q-58 0 -88 -17t-30 -55
q0 -26 10.5 -40t39 -25.5t91.5 -28.5q90 -25 125.5 -58.5t35.5 -92.5q0 -61 -47.5 -96t-144.5 -35q-47 0 -101 13.5zM206 -63h81l-92 -196h-70z" />
    <glyph glyph-name="uni021A" unicode="&#x21a;" horiz-adv-x="586" 
d="M254 633h-224v66h526v-66h-224v-633h-78v633zM251 -63h81l-91 -197h-70z" />
    <glyph glyph-name="uni021B" unicode="&#x21b;" horiz-adv-x="365" 
d="M142.5 25q-37.5 40 -37.5 114v281h-75v60h75v144h77v-144h121v-60h-121v-283q0 -50 20 -70.5t73 -20.5q26 0 55 12v-63q-33 -10 -82 -10q-68 0 -105.5 40zM194 -63h81l-91 -197h-70z" />
    <glyph glyph-name="uni0237" unicode="&#x237;" horiz-adv-x="233" 
d="M-60 -222v65q26 -13 58 -13q48 0 68 23t20 74v553h77v-553q0 -79 -41 -118.5t-113 -39.5q-42 0 -69 9z" />
    <glyph glyph-name="uni0251" unicode="&#x251;" horiz-adv-x="656" 
d="M173 16q-57 31 -90 89t-33 134q0 75 32.5 133.5t90 90.5t128.5 32q69 0 122.5 -24.5t85.5 -71.5v81h77v-480h-75v84q-38 -50 -89.5 -74.5t-120.5 -24.5q-71 0 -128 31zM437.5 81.5q51.5 35.5 71.5 97.5v120q-19 62 -70.5 98t-121.5 36q-53 0 -96.5 -24.5t-68.5 -68.5
t-25 -101t25 -101t68.5 -68t96.5 -24q69 0 120.5 35.5z" />
    <glyph glyph-name="uni0259" unicode="&#x259;" horiz-adv-x="608" 
d="M165 16.5q-57 31.5 -86 86.5t-29 125v42h436q-4 82 -60.5 123t-153.5 41q-47 0 -92.5 -8.5t-81.5 -23.5v65q30 12 81.5 20t100.5 8q131 0 204.5 -67t73.5 -187q0 -118 -66 -187t-188 -69q-82 0 -139 31.5zM438 93.5q46 46.5 48 121.5h-364q2 -78 48 -123t135 -45
q87 0 133 46.5z" />
    <glyph glyph-name="uni02BB" unicode="&#x2bb;" horiz-adv-x="244" 
d="M127 714h67l-68 -193h-76z" />
    <glyph glyph-name="uni02BC" unicode="&#x2bc;" horiz-adv-x="244" 
d="M117 714h77l-78 -193h-66z" />
    <glyph glyph-name="uni02BE" unicode="&#x2be;" 
d="M-65 602q75 0 75 68t-75 68v56q59 0 95 -32t36 -92t-36.5 -92.5t-94.5 -32.5v57z" />
    <glyph glyph-name="uni02BF" unicode="&#x2bf;" 
d="M-28.5 577.5q-36.5 32.5 -36.5 92.5t36 92t95 32v-56q-75 0 -75 -68t75 -68v-57q-58 0 -94.5 32.5z" />
    <glyph glyph-name="circumflex" unicode="&#x2c6;" horiz-adv-x="441" 
d="M187 759h67l137 -161h-78l-92 114l-92 -114h-79z" />
    <glyph glyph-name="caron" unicode="&#x2c7;" horiz-adv-x="441" 
d="M50 766h79l92 -115l92 115h78l-137 -161h-67z" />
    <glyph glyph-name="uni02C8" unicode="&#x2c8;" 
d="M-36 751h70v-165h-70v165z" />
    <glyph glyph-name="uni02C9" unicode="&#x2c9;" horiz-adv-x="589" 
d="M143 671h305v-57h-305v57z" />
    <glyph glyph-name="uni02CA" unicode="&#x2ca;" 
d="M-6 763h81l-80 -170h-69z" />
    <glyph glyph-name="uni02CB" unicode="&#x2cb;" 
d="M6 763h69l-68 -170h-81z" />
    <glyph glyph-name="uni02CC" unicode="&#x2cc;" 
d="M-36 -66h70v-165h-70v165z" />
    <glyph glyph-name="breve" unicode="&#x2d8;" horiz-adv-x="379" 
d="M88 611.5q-38 36.5 -38 93.5h59q0 -35 21.5 -55.5t58.5 -20.5q38 0 59 20.5t21 55.5h60q0 -57 -38 -93.5t-102 -36.5q-63 0 -101 36.5z" />
    <glyph glyph-name="dotaccent" unicode="&#x2d9;" horiz-adv-x="199" 
d="M65 607.5q-15 14.5 -15 34.5t15 34.5t35 14.5t34.5 -14.5t14.5 -34.5t-14.5 -34.5t-34.5 -14.5t-35 14.5z" />
    <glyph glyph-name="ring" unicode="&#x2da;" horiz-adv-x="316" 
d="M81.5 588.5q-31.5 31.5 -31.5 76.5q0 44 31.5 76t76.5 32q44 0 76 -32t32 -76q0 -45 -32 -76.5t-76 -31.5q-45 0 -76.5 31.5zM198 624.5q17 17.5 17 40.5t-17 40t-40 17q-24 0 -40.5 -17t-16.5 -40t17 -40.5t40 -17.5t40 17.5z" />
    <glyph glyph-name="ogonek" unicode="&#x2db;" horiz-adv-x="263" 
d="M77.5 -187.5q-27.5 22.5 -27.5 64.5q0 37 21 69t54 54h72q-39 -27 -59 -54t-20 -58q0 -25 11.5 -36t36.5 -11t47 10v-50q-25 -11 -66 -11q-42 0 -69.5 22.5z" />
    <glyph glyph-name="tilde" unicode="&#x2dc;" horiz-adv-x="471" 
d="M50 675q28 43 95 43q22 0 42 -6t51 -19q26 -12 46 -18.5t42 -6.5q29 0 52.5 12t42.5 40v-69q-28 -42 -95 -42q-25 0 -47 6.5t-50 19.5q-28 12 -45.5 18t-38.5 6q-28 0 -51 -12t-44 -41v69z" />
    <glyph glyph-name="hungarumlaut" unicode="&#x2dd;" horiz-adv-x="439" 
d="M118 763h81l-80 -170h-69zM308 763h81l-80 -170h-69z" />
    <glyph glyph-name="gravecomb" unicode="&#x300;" 
d="M-446 763h81l68 -170h-69z" />
    <glyph glyph-name="acutecomb" unicode="&#x301;" 
d="M-259 763h81l-80 -170h-69z" />
    <glyph glyph-name="uni0302" unicode="&#x302;" 
d="M-34 759h67l137 -161h-78l-92 114l-92 -114h-79z" />
    <glyph glyph-name="tildecomb" unicode="&#x303;" 
d="M-494 675q28 43 95 43q22 0 42 -6t51 -19q26 -12 46 -18.5t42 -6.5q29 0 52.5 12t42.5 40v-69q-28 -42 -95 -42q-25 0 -47 6.5t-50 19.5q-28 12 -45.5 18t-38.5 6q-28 0 -51 -12t-44 -41v69z" />
    <glyph glyph-name="uni0304" unicode="&#x304;" 
d="M-145 668h301v-54h-301v54z" />
    <glyph glyph-name="uni0306" unicode="&#x306;" 
d="M-102 611.5q-38 36.5 -38 93.5h60q0 -35 21.5 -55.5t58.5 -20.5t58.5 20.5t21.5 55.5h59q0 -57 -38 -93.5t-101 -36.5q-64 0 -102 36.5z" />
    <glyph glyph-name="uni0307" unicode="&#x307;" 
d="M-35 607.5q-15 14.5 -15 34.5t15 34.5t35 14.5t34.5 -14.5t14.5 -34.5t-14.5 -34.5t-34.5 -14.5t-35 14.5z" />
    <glyph glyph-name="uni0308" unicode="&#x308;" 
d="M-144 607.5q-15 14.5 -15 34.5t15 34.5t35 14.5t34.5 -14.5t14.5 -34.5t-14.5 -34.5t-34.5 -14.5t-35 14.5zM73 607.5q-15 14.5 -15 34.5t15 34.5t35 14.5t34.5 -14.5t14.5 -34.5t-14.5 -34.5t-34.5 -14.5t-35 14.5z" />
    <glyph glyph-name="hookabovecomb" unicode="&#x309;" 
d="M-383 634q48 0 70.5 13.5t22.5 44.5q0 26 -17 38t-53 12q-14 0 -33 -3t-27 -7v45q13 5 34.5 8t41.5 3q60 0 91 -25t31 -68q0 -37 -24.5 -63.5t-69.5 -30.5v-35h-67v68z" />
    <glyph glyph-name="uni030A" unicode="&#x30a;" 
d="M-76.5 588.5q-31.5 31.5 -31.5 76.5q0 44 31.5 76t76.5 32q44 0 76 -32t32 -76q0 -45 -32 -76.5t-76 -31.5q-45 0 -76.5 31.5zM40 624.5q17 17.5 17 40.5t-17 40t-40 17q-24 0 -40.5 -17t-16.5 -40t17 -40.5t40 -17.5t40 17.5z" />
    <glyph glyph-name="uni030B" unicode="&#x30b;" 
d="M-110 763h81l-80 -170h-69zM80 763h81l-80 -170h-69z" />
    <glyph glyph-name="uni030C" unicode="&#x30c;" 
d="M-171 758h79l92 -114l92 114h78l-137 -161h-67z" />
    <glyph glyph-name="uni031B" unicode="&#x31b;" 
d="M-78 624q97 0 97 87v36h62v-40q0 -38 -19.5 -69.5t-55.5 -50t-84 -18.5v55z" />
    <glyph glyph-name="dotbelowcomb" unicode="&#x323;" 
d="M-35 -137.5q-15 14.5 -15 34.5t15 34.5t35 14.5t34.5 -14.5t14.5 -34.5t-14.5 -34.5t-34.5 -14.5t-35 14.5z" />
    <glyph glyph-name="uni0324" unicode="&#x324;" 
d="M-144 -137.5q-15 14.5 -15 34.5t15 34.5t35 14.5t34.5 -14.5t14.5 -34.5t-14.5 -34.5t-34.5 -14.5t-35 14.5zM73 -137.5q-15 14.5 -15 34.5t15 34.5t35 14.5t34.5 -14.5t14.5 -34.5t-14.5 -34.5t-34.5 -14.5t-35 14.5z" />
    <glyph glyph-name="uni0326" unicode="&#x326;" 
d="M-131 -63h81l-91 -197h-70z" />
    <glyph glyph-name="uni0327" unicode="&#x327;" 
d="M-61.5 -245q-20.5 3 -31.5 7v48q10 -4 26 -7t31 -3q68 0 68 50q0 29 -23.5 43t-79.5 14l35 93h71l-24 -60q93 -12 93 -92q0 -42 -33.5 -69t-90.5 -27q-21 0 -41.5 3z" />
    <glyph glyph-name="uni0328" unicode="&#x328;" 
d="M-50.5 -187.5q-27.5 22.5 -27.5 64.5q0 37 21 69t54 54h72q-39 -27 -59 -54t-20 -58q0 -25 11.5 -36t36.5 -11t47 10v-50q-25 -11 -66 -11q-42 0 -69.5 22.5z" />
    <glyph glyph-name="uni032E" unicode="&#x32e;" 
d="M-102 -156.5q-38 36.5 -38 93.5h60q0 -35 21.5 -55.5t58.5 -20.5t58.5 20.5t21.5 55.5h59q0 -57 -38 -93.5t-101 -36.5q-64 0 -102 36.5z" />
    <glyph glyph-name="uni0331" unicode="&#x331;" 
d="M-147 -74h305v-57h-305v57z" />
    <glyph glyph-name="uni0394" unicode="&#x394;" horiz-adv-x="685" 
d="M50 60l255 654h75l255 -654v-60h-585v60zM560 66l-218 560l-218 -560h436z" />
    <glyph glyph-name="uni03A9" unicode="&#x3a9;" horiz-adv-x="822" 
d="M50 66h155q-72 49 -113 123t-41 171q0 101 44.5 181.5t126.5 126.5t189 46t189 -46t126.5 -126.5t44.5 -181.5q0 -97 -41 -171t-113 -123h155v-66h-271v65q103 58 147.5 126t44.5 169q0 82 -36 146.5t-100.5 100.5t-145.5 36t-145.5 -36t-100.5 -100.5t-36 -146.5
q0 -101 44.5 -169t147.5 -126v-65h-271v66z" />
    <glyph glyph-name="uni03BC" unicode="&#x3bc;" horiz-adv-x="596" 
d="M70 480h77v-308q0 -126 131 -126q55 0 96.5 24t74.5 76v334h77v-480h-75v72q-65 -87 -182 -87q-74 0 -122 31v-235h-77v699z" />
    <glyph glyph-name="pi" unicode="&#x3c0;" horiz-adv-x="699" 
d="M474.5 26.5q-33.5 41.5 -33.5 120.5v267h-221v-414h-78v414h-102v66h580v-66h-101v-274q0 -49 19 -71.5t65 -22.5q32 0 56 10v-62q-30 -9 -72 -9q-79 0 -112.5 41.5z" />
    <glyph glyph-name="uni0E01" unicode="&#xe01;" horiz-adv-x="631" 
d="M100 340l-50 79q50 64 116 97.5t157 33.5q116 0 177 -53t61 -149v-348h-77v341q0 75 -40.5 111t-120.5 36q-62 0 -108 -18.5t-82 -59.5l44 -69v-341h-77v340z" />
    <glyph glyph-name="uni0E02" unicode="&#xe02;" horiz-adv-x="568" 
d="M114.5 39.5q-59.5 54.5 -59.5 145.5v43q0 32 14.5 60t41.5 66q20 27 30 44.5t10 34.5q0 23 -10 31.5t-36 8.5h-55v62h87q42 0 66.5 -25t24.5 -67q0 -27 -12 -50.5t-37 -58.5q-24 -32 -35.5 -54.5t-11.5 -47.5v-50q0 -65 37 -100t108 -35q72 0 108 35t36 101v352h77v-338
q0 -100 -58 -156t-163 -56q-103 0 -162.5 54.5z" />
    <glyph glyph-name="uni0E03" unicode="&#xe03;" horiz-adv-x="571" 
d="M117.5 38q-59.5 53 -59.5 143v49q0 31 16.5 59t48.5 66q23 28 33.5 44t10.5 31v3q-22 -12 -49 -12q-33 0 -50.5 18t-17.5 53v43h58v-34q0 -17 8 -24.5t27 -7.5q20 0 37 13v53h61v-88q0 -29 -14 -55t-42 -63q-25 -31 -37.5 -53.5t-12.5 -45.5v-49q0 -64 37 -99t108 -35
q72 0 108 35t36 101v352h77v-338q0 -100 -58 -156t-163 -56q-103 0 -162.5 53z" />
    <glyph glyph-name="uni0E04" unicode="&#xe04;" horiz-adv-x="630" 
d="M70 338q0 101 65.5 156.5t179.5 55.5q115 0 180 -55.5t65 -156.5v-338h-77v341q0 74 -44.5 110.5t-123.5 36.5t-123.5 -36.5t-44.5 -110.5v-117q15 26 45.5 42.5t71.5 16.5h79v-62h-86q-30 0 -55.5 -16t-40 -40.5t-14.5 -50.5v-114h-77v338z" />
    <glyph glyph-name="uni0E05" unicode="&#xe05;" horiz-adv-x="630" 
d="M70 363q0 89 29.5 138t106.5 49q39 0 67 -17t41 -48q14 31 42.5 48t67.5 17q78 0 107 -48.5t29 -138.5v-363h-77v389q0 51 -15.5 75t-55.5 24q-30 0 -47.5 -16t-25.5 -51h-49q-8 35 -24.5 51t-47.5 16q-40 0 -55.5 -24t-15.5 -74v-166q15 26 45.5 42.5t71.5 16.5h79v-62
h-86q-30 0 -55.5 -15.5t-40 -40t-14.5 -51.5v-114h-77v363z" />
    <glyph glyph-name="uni0E06" unicode="&#xe06;" horiz-adv-x="609" 
d="M225 8q-53 23 -92 71v-79h-75v219q0 32 16.5 62t48.5 71q22 28 33 45.5t11 32.5v3q-22 -12 -49 -12q-33 0 -50.5 18t-17.5 53v43h58v-34q0 -17 8 -24.5t27 -7.5q20 0 37 13v53h61v-91q0 -29 -13.5 -54.5t-40.5 -62.5t-39.5 -60.5t-12.5 -49.5v-68q66 -102 180 -102
q147 0 147 132v356h77v-359q0 -87 -54 -139t-152 -52q-55 0 -108 23z" />
    <glyph glyph-name="uni0E07" unicode="&#xe07;" horiz-adv-x="609" 
d="M50 468h78l137 -407q105 0 161 56.5t56 159.5t-39 157t-125 54q-37 0 -71 -9v61q33 10 82 10q112 0 171 -73t59 -200q0 -86 -36.5 -149t-99 -95.5t-140.5 -32.5h-76z" />
    <glyph glyph-name="uni0E08" unicode="&#xe08;" horiz-adv-x="583" 
d="M83 294h76l57 -233q72 0 126 27t84 77t30 117q0 71 -19.5 116t-67 67.5t-130.5 22.5q-51 0 -102 -9.5t-87 -25.5v62q36 16 89.5 25.5t107.5 9.5q145 0 215.5 -66t70.5 -202q0 -80 -40 -144.5t-108.5 -101t-150.5 -36.5h-79z" />
    <glyph glyph-name="uni0E09" unicode="&#xe09;" horiz-adv-x="601" 
d="M117 34.5q-50 49.5 -50 138.5v134h77v-129q0 -66 34 -98.5t104 -32.5q56 0 98 25t74 77v145q0 100 -46 147t-156 47q-54 0 -109.5 -9.5t-92.5 -25.5v62q36 16 93 25.5t115 9.5q141 0 207 -63t66 -190v-297h-75v79q-71 -94 -193 -94q-96 0 -146 49.5z" />
    <glyph glyph-name="uni0E0A" unicode="&#xe0a;" horiz-adv-x="582" 
d="M164 10q-52 25 -80.5 70t-28.5 105v43q0 32 14.5 60t41.5 66q20 27 30 44.5t10 34.5q0 23 -10 31.5t-36 8.5h-55v62h87q42 0 66.5 -25t24.5 -67q0 -27 -12 -50.5t-37 -58.5q-24 -32 -35.5 -54.5t-11.5 -47.5v-50q0 -64 40 -99.5t111 -35.5q74 0 118 40t44 120
q0 76 -33 116t-96 40v44l111 143h85l-116 -149q126 -38 126 -194q0 -105 -66 -163.5t-173 -58.5q-67 0 -119 25z" />
    <glyph glyph-name="uni0E0B" unicode="&#xe0b;" horiz-adv-x="585" 
d="M166.5 9q-51.5 24 -80 68.5t-28.5 103.5v49q0 31 16.5 59t48.5 66q23 28 33.5 44t10.5 31v3q-22 -12 -49 -12q-33 0 -50.5 18t-17.5 53v43h58v-34q0 -17 8 -24.5t27 -7.5q20 0 37 13v53h61v-88q0 -29 -14 -55t-42 -63q-25 -31 -37.5 -53.5t-12.5 -45.5v-49
q0 -63 40 -98.5t111 -35.5q74 0 118 40t44 120q0 76 -33 116t-96 40v44l111 143h85l-116 -149q126 -38 126 -194q0 -105 -66 -163.5t-173 -58.5q-68 0 -119.5 24z" />
    <glyph glyph-name="uni0E0C" unicode="&#xe0c;" horiz-adv-x="994" 
d="M626 7.5q-50 22.5 -88 69.5v-77h-74v341q0 76 -37.5 111.5t-113.5 35.5q-58 0 -100 -18t-80 -60l44 -69v-224q0 -29 11.5 -40.5t39.5 -11.5h58v-65h-90q-47 0 -71.5 26t-24.5 72v242l-50 79q51 65 113.5 98t149.5 33q112 0 169.5 -53t57.5 -149v-199q33 -52 77 -77
t93 -25q137 0 137 132v356h77v-359q0 -87 -51 -139t-145 -52q-52 0 -102 22.5z" />
    <glyph glyph-name="uni0E0D" unicode="&#xe0d;" horiz-adv-x="999" 
d="M600.5 -86q-51.5 12 -80.5 31v65q39 -23 86.5 -34.5t96.5 -11.5q77 0 121 22t44 66q0 33 -24 57q-61 -40 -147 -40q-117 0 -175 57t-58 157v58q0 76 -37.5 111.5t-113.5 35.5q-58 0 -100 -18t-80 -60l44 -69v-224q0 -29 11.5 -40.5t39.5 -11.5h58v-65h-90q-47 0 -71.5 26
t-24.5 72v242l-50 79q51 65 113.5 98t149.5 33q112 0 169.5 -53t57.5 -149v-66q0 -73 38 -112.5t119 -39.5q79 0 117.5 41.5t38.5 114.5v249h77v-252q0 -77 -38 -130q24 -21 35.5 -45.5t11.5 -55.5q0 -73 -64.5 -111.5t-171.5 -38.5q-51 0 -102.5 12z" />
    <glyph glyph-name="uni0E0E" unicode="&#xe0e;" horiz-adv-x="655" 
d="M192 -158q23 24 67.5 40t89.5 16q95 0 159 -45v488q0 147 -161 147q-62 0 -106.5 -18t-81.5 -58l62 -70v-244q0 -46 -24.5 -72t-71.5 -26h-75v65h45q29 0 39 10.5t10 41.5v223l-70 79q49 64 115.5 97.5t157.5 33.5q116 0 177 -53t61 -149v-569h-70q-42 31 -80.5 44
t-85.5 13q-44 0 -86 -16t-71 -46v68z" />
    <glyph glyph-name="uni0E0F" unicode="&#xe0f;" horiz-adv-x="655" 
d="M173.5 -216.5q-27.5 7.5 -44.5 20.5v61q20 -13 45.5 -20t51.5 -7q91 0 110 84h49l123 -73v492q0 147 -161 147q-62 0 -106.5 -18t-81.5 -58l62 -70v-244q0 -46 -24.5 -72t-71.5 -26h-75v65h45q29 0 39 10.5t10 41.5v223l-70 79q49 64 115.5 97.5t157.5 33.5
q116 0 177 -53t61 -149v-569h-74l-138 82q-35 -85 -143 -85q-29 0 -56.5 7.5z" />
    <glyph glyph-name="uni0E10" unicode="&#xe10;" horiz-adv-x="587" 
d="M83 294h76l57 -233q72 0 126 27t84 77t30 117q0 71 -19.5 116t-67 67.5t-130.5 22.5q-51 0 -102 -9.5t-87 -25.5v62q36 16 89.5 25.5t107.5 9.5q101 0 167 -33l52 58h86l-85 -96q66 -66 66 -197q0 -80 -40 -144.5t-108.5 -101t-150.5 -36.5h-79zM105 -216.5
q-29 7.5 -46 20.5v62q20 -13 46 -20t52 -7q47 0 72.5 19.5t36.5 63.5h45l127 -77v99h77v-165h-74l-137 84q-19 -47 -53 -67t-88 -20q-29 0 -58 7.5z" />
    <glyph glyph-name="uni0E11" unicode="&#xe11;" horiz-adv-x="617" 
d="M70 230q0 31 14.5 59t42.5 66q20 26 29.5 43t9.5 32v3q-22 -12 -49 -12q-33 0 -50 18t-17 53v43h58v-34q0 -17 8 -24.5t27 -7.5q20 0 37 13v53h61v-48q27 31 67 47t85 16q154 0 154 -175v-375h-77v382q0 53 -22.5 79.5t-70.5 26.5q-45 0 -80 -17t-63 -56
q-5 -22 -15.5 -40t-29.5 -46q-22 -32 -32 -52.5t-10 -46.5v-230h-77v230z" />
    <glyph glyph-name="uni0E12" unicode="&#xe12;" horiz-adv-x="1033" 
d="M170 16.5q-57 31.5 -88.5 92.5t-31.5 149q0 91 22 156.5t62.5 100.5t94.5 35q40 0 65 -16.5t40 -48.5q16 32 46.5 48.5t71.5 16.5q66 0 96.5 -42t30.5 -114v-245q33 -52 77 -77t93 -25q137 0 137 132v356h77v-359q0 -87 -51 -139t-145 -52q-52 0 -102 22.5t-88 69.5v-77
h-74v389q0 51 -15 75t-53 24q-31 0 -49.5 -16.5t-26.5 -50.5h-50q-13 67 -66 67q-66 0 -91 -71t-25 -159q0 -103 49.5 -157t136.5 -54q40 0 71 9v-61q-33 -10 -82 -10q-75 0 -132 31.5z" />
    <glyph glyph-name="uni0E13" unicode="&#xe13;" horiz-adv-x="994" 
d="M515 37q-51 52 -51 139v165q0 76 -37.5 111.5t-113.5 35.5q-58 0 -100 -18t-80 -60l44 -69v-224q0 -29 11.5 -40.5t39.5 -11.5h58v-65h-90q-47 0 -71.5 26t-24.5 72v242l-50 79q51 65 113.5 98t149.5 33q112 0 169.5 -53t57.5 -149v-169q0 -132 138 -132q103 0 169 102
v386h77v-535h-74v77q-71 -92 -190 -92q-94 0 -145 52z" />
    <glyph glyph-name="uni0E14" unicode="&#xe14;" horiz-adv-x="665" 
d="M170 16.5q-57 31.5 -88.5 92.5t-31.5 149q0 138 75.5 215t209.5 77q137 0 198.5 -64.5t61.5 -162.5v-323h-77v324q0 164 -183 164q-98 0 -153 -58.5t-55 -171.5q0 -103 50 -157t136 -54q37 0 71 9v-61q-33 -10 -82 -10q-75 0 -132 31.5z" />
    <glyph glyph-name="uni0E15" unicode="&#xe15;" horiz-adv-x="665" 
d="M170 16.5q-57 31.5 -88.5 92.5t-31.5 149q0 90 23.5 156t65.5 101t96 35q77 0 106 -65q16 32 49 48.5t74 16.5q66 0 98.5 -42.5t32.5 -113.5v-394h-77v389q0 50 -16.5 74.5t-54.5 24.5q-65 0 -81 -67h-50q-7 35 -23 51t-47 16q-52 0 -85.5 -60t-33.5 -170q0 -103 50 -157
t136 -54q37 0 71 9v-61q-33 -10 -82 -10q-75 0 -132 31.5z" />
    <glyph glyph-name="uni0E16" unicode="&#xe16;" horiz-adv-x="631" 
d="M124.5 26q-24.5 26 -24.5 72v242l-50 79q50 64 116 97.5t157 33.5q116 0 177 -53t61 -149v-348h-77v341q0 75 -40.5 111t-120.5 36q-62 0 -106.5 -18t-83.5 -60l44 -69v-224q0 -29 11.5 -40.5t39.5 -11.5h58v-65h-90q-47 0 -71.5 26z" />
    <glyph glyph-name="uni0E17" unicode="&#xe17;" horiz-adv-x="621" 
d="M70 535h75v-78q39 47 94 70t112 23q96 0 148 -52t52 -135v-363h-77v359q0 61 -35 95t-106 34q-121 0 -186 -100v-388h-77v535z" />
    <glyph glyph-name="uni0E18" unicode="&#xe18;" horiz-adv-x="553" 
d="M116 27q-64 42 -64 117v68h77v-66q0 -50 42 -74.5t110 -24.5q69 0 107 23.5t38 70.5q0 36 -16 56.5t-49 33t-106 30.5q-70 18 -111.5 34t-67.5 44.5t-26 73.5q0 72 60.5 104.5t160.5 32.5q54 0 111.5 -12t87.5 -31v-64q-35 21 -87.5 33t-104.5 12q-74 0 -112.5 -15.5
t-38.5 -59.5q0 -26 17.5 -42t47 -26.5t87.5 -26.5l30 -8q72 -20 112 -38.5t61 -49t21 -81.5q0 -71 -58 -113.5t-164 -42.5q-101 0 -165 42z" />
    <glyph glyph-name="uni0E19" unicode="&#xe19;" horiz-adv-x="621" 
d="M124 37q-54 52 -54 139v359h77v-356q0 -65 37 -98.5t110 -33.5q114 0 180 102v386h77v-535h-75v79q-37 -48 -86 -71t-114 -23q-98 0 -152 52z" />
    <glyph glyph-name="uni0E1A" unicode="&#xe1a;" horiz-adv-x="636" 
d="M186.5 12q-56.5 27 -86.5 76.5t-30 113.5v333h77v-334q0 -71 44.5 -112.5t126.5 -41.5t126.5 41.5t44.5 112.5v334h77v-333q0 -64 -30 -113.5t-86.5 -76.5t-131.5 -27t-131.5 27z" />
    <glyph glyph-name="uni0E1B" unicode="&#xe1b;" horiz-adv-x="636" 
d="M186.5 12q-56.5 27 -86.5 76.5t-30 113.5v333h77v-334q0 -71 44.5 -112.5t126.5 -41.5t126.5 41.5t44.5 112.5v513h77v-512q0 -64 -30 -113.5t-86.5 -76.5t-131.5 -27t-131.5 27z" />
    <glyph glyph-name="uni0E1C" unicode="&#xe1c;" horiz-adv-x="637" 
d="M70 434q0 49 25 75t73 26h68v-65h-36q-29 0 -41 -12t-12 -40v-299l153 256h37l153 -256v416h77v-535h-71l-177 297l-178 -297h-71v434z" />
    <glyph glyph-name="uni0E1D" unicode="&#xe1d;" horiz-adv-x="637" 
d="M70 434q0 49 25 75t73 26h68v-65h-36q-29 0 -41 -12t-12 -40v-299l153 256h37l153 -256v595h77v-714h-71l-177 297l-178 -297h-71v434z" />
    <glyph glyph-name="uni0E1E" unicode="&#xe1e;" horiz-adv-x="768" 
d="M40 535h77l109 -424l127 424h62l127 -424l109 424h77l-148 -535h-65l-131 437l-131 -437h-65z" />
    <glyph glyph-name="uni0E1F" unicode="&#xe1f;" horiz-adv-x="753" 
d="M40 535h77l109 -424l127 424h62l127 -424l149 603h72l-183 -714h-65l-131 437l-131 -437h-65z" />
    <glyph glyph-name="uni0E20" unicode="&#xe20;" horiz-adv-x="655" 
d="M50 65h45q29 0 39 10.5t10 41.5v223l-70 79q49 64 115.5 97.5t157.5 33.5q116 0 177 -53t61 -149v-348h-77v341q0 147 -161 147q-62 0 -106.5 -18t-81.5 -58l62 -70v-244q0 -46 -24.5 -72t-71.5 -26h-75v65z" />
    <glyph glyph-name="uni0E21" unicode="&#xe21;" horiz-adv-x="621" 
d="M145 79v-79h-75v535h77v-386q66 -102 180 -102q73 0 110 33.5t37 98.5v356h77v-359q0 -87 -54 -139t-152 -52q-122 0 -200 94z" />
    <glyph glyph-name="uni0E22" unicode="&#xe22;" horiz-adv-x="622" 
d="M116.5 27.5q-66.5 42.5 -66.5 125.5q0 47 25 81.5t69 47.5q-42 16 -66.5 48.5t-24.5 76.5q0 64 42 103.5t122 39.5q22 0 45.5 -3t37.5 -7v-61q-13 4 -33.5 6.5t-37.5 2.5q-48 0 -73.5 -22.5t-25.5 -62.5q0 -41 28.5 -64.5t81.5 -23.5h60v-64h-59q-54 0 -84 -24.5
t-30 -73.5q0 -51 45.5 -78.5t123.5 -27.5q91 0 134.5 40.5t43.5 113.5v334h77v-332q0 -56 -24 -105t-81 -81t-150 -32q-113 0 -179.5 42.5z" />
    <glyph glyph-name="uni0E23" unicode="&#xe23;" horiz-adv-x="504" 
d="M139.5 -1.5q-55.5 13.5 -87.5 37.5v65q42 -27 92 -40.5t98 -13.5q72 0 103.5 18.5t31.5 62.5q0 29 -13.5 47.5t-44.5 32.5t-92 32q-91 27 -134 61.5t-43 100.5q0 72 54.5 110t149.5 38q49 0 94 -11.5t75 -30.5v-64q-72 44 -163 44q-133 0 -133 -86q0 -31 16 -49t47 -30.5
t95 -30.5t100.5 -39.5t52.5 -51t16 -74.5q0 -64 -50.5 -103t-156.5 -39q-52 0 -107.5 13.5z" />
    <glyph glyph-name="uni0E24" unicode="&#xe24;" horiz-adv-x="631" 
d="M484 341q0 75 -40.5 111t-120.5 36q-62 0 -106.5 -18t-83.5 -60l44 -69v-224q0 -29 11.5 -40.5t39.5 -11.5h58v-65h-90q-47 0 -71.5 26t-24.5 72v242l-50 79q50 64 116 97.5t157 33.5q116 0 177 -53t61 -149v-544h-77v537z" />
    <glyph glyph-name="uni0E25" unicode="&#xe25;" horiz-adv-x="596" 
d="M101 28.5q-51 43.5 -51 125.5q0 80 57 126.5t153 46.5q104 0 189 -40v58q0 74 -40 108.5t-130 34.5q-47 0 -92 -8.5t-78 -23.5v62q30 14 81 23t99 9q120 0 178.5 -54.5t58.5 -149.5v-346h-77v225q-79 40 -182 40q-72 0 -106 -27.5t-34 -83.5q0 -55 31 -81t99 -26
q35 0 66 9v-61q-35 -10 -83 -10q-88 0 -139 43.5z" />
    <glyph glyph-name="uni0E26" unicode="&#xe26;" horiz-adv-x="655" 
d="M508 341q0 147 -161 147q-62 0 -106.5 -18t-81.5 -58l62 -70v-244q0 -46 -24.5 -72t-71.5 -26h-75v65h45q29 0 39 10.5t10 41.5v223l-70 79q49 64 115.5 97.5t157.5 33.5q116 0 177 -53t61 -149v-544h-77v537z" />
    <glyph glyph-name="uni0E27" unicode="&#xe27;" horiz-adv-x="578" 
d="M50 32v65q71 -50 178 -50q105 0 164 55.5t59 164.5t-59 165t-164 56q-106 0 -177 -51v66q72 47 190 47q133 0 210 -74.5t77 -208.5t-77 -208t-210 -74q-121 0 -191 47z" />
    <glyph glyph-name="uni0E28" unicode="&#xe28;" horiz-adv-x="637" 
d="M70 338q0 101 65.5 156.5t179.5 55.5q82 0 142 -30l49 55h86l-84 -94q52 -54 52 -143v-338h-77v341q0 74 -44.5 110.5t-123.5 36.5t-123.5 -36.5t-44.5 -110.5v-117q15 26 45.5 42.5t71.5 16.5h79v-62h-86q-30 0 -55.5 -16t-40 -40.5t-14.5 -50.5v-114h-77v338z" />
    <glyph glyph-name="uni0E29" unicode="&#xe29;" horiz-adv-x="652" 
d="M186.5 12q-56.5 27 -86.5 76.5t-30 113.5v333h77v-334q0 -71 44.5 -112.5t126.5 -41.5t126.5 41.5t44.5 112.5v78h-137v62h137v194h77v-194h61v-62h-61v-77q0 -64 -30 -113.5t-86.5 -76.5t-131.5 -27t-131.5 27z" />
    <glyph glyph-name="uni0E2A" unicode="&#xe2a;" horiz-adv-x="612" 
d="M101 28.5q-51 43.5 -51 125.5q0 80 57 126.5t153 46.5q104 0 189 -40v58q0 74 -40 108.5t-130 34.5q-47 0 -92 -8.5t-78 -23.5v62q30 14 81 23t99 9q101 0 159 -40l58 65h86l-98 -110q32 -48 32 -119v-346h-77v225q-79 40 -182 40q-140 0 -140 -111q0 -55 31 -81t99 -26
q35 0 66 9v-61q-35 -10 -83 -10q-88 0 -139 43.5z" />
    <glyph glyph-name="uni0E2B" unicode="&#xe2b;" horiz-adv-x="599" 
d="M70 535h77v-257l288 257h91l-146 -131q83 -20 116 -65.5t33 -120.5v-218h-77v214q0 63 -27.5 96t-94.5 47l-183 -163v-194h-77v535z" />
    <glyph glyph-name="uni0E2C" unicode="&#xe2c;" horiz-adv-x="641" 
d="M70 535h77v-411l156 266h36l156 -266v279q0 62 -24 89t-91 27v45l114 150h87l-117 -154q60 -15 84 -53.5t24 -98.5v-408h-71l-180 310l-180 -310h-71v535z" />
    <glyph glyph-name="uni0E2D" unicode="&#xe2d;" horiz-adv-x="601" 
d="M144 0q-55 15 -94 43v252h204v-62h-127v-154q49 -32 131 -32q102 0 159 60t57 170q0 111 -53.5 161t-176.5 50q-54 0 -104.5 -11.5t-85.5 -36.5v64q76 46 199 46q146 0 222 -69.5t76 -203.5q0 -88 -35 -154t-101 -102t-157 -36q-59 0 -114 15z" />
    <glyph glyph-name="uni0E2E" unicode="&#xe2e;" horiz-adv-x="602" 
d="M144 0q-55 15 -94 43v252h204v-62h-127v-154q49 -32 131 -32q102 0 159 60t57 170q0 109 -56.5 160t-173.5 51q-54 0 -104.5 -11.5t-85.5 -36.5v64q76 46 199 46q111 0 181 -44l62 69h86l-98 -110q34 -37 50.5 -81t16.5 -107q0 -88 -35 -154t-101 -102t-157 -36
q-59 0 -114 15z" />
    <glyph glyph-name="uni0E2F" unicode="&#xe2f;" horiz-adv-x="506" 
d="M359 274q-29 -20 -68.5 -30t-83.5 -10q-78 0 -127.5 41t-49.5 116q0 76 45 117.5t116 41.5q53 0 84 -12v-59q-31 9 -66 9q-47 0 -74.5 -24t-27.5 -73t31 -72t84 -23q81 0 137 42v197h77v-535h-77v274z" />
    <glyph glyph-name="uni0E30" unicode="&#xe30;" horiz-adv-x="321" 
d="M67 349q-17 18 -17 54v50h71v-34q0 -17 7.5 -24t26.5 -7h116v-57h-148q-39 0 -56 18zM67 74q-17 18 -17 54v50h71v-34q0 -17 7.5 -24t26.5 -7h116v-57h-148q-39 0 -56 18z" />
    <glyph glyph-name="uni0E31" unicode="&#xe31;" 
d="M-300 640q-18 19 -18 56v47h71v-34q0 -18 7 -24.5t27 -6.5h234v-57h-265q-38 0 -56 19z" />
    <glyph glyph-name="uni0E32" unicode="&#xe32;" horiz-adv-x="422" 
d="M275 350q0 71 -29 104.5t-99 33.5q-71 0 -127 -28v62q24 12 61.5 20t75.5 8q99 0 147 -53t48 -152v-345h-77v350z" />
    <glyph glyph-name="uni0E33" unicode="&#xe33;" horiz-adv-x="424" 
d="M-199 639.5q-31 30.5 -31 73.5t31 74.5t74 31.5t74 -31.5t31 -74.5t-31 -73.5t-74 -30.5t-74 30.5zM-91.5 678q14.5 15 14.5 35t-14 34.5t-34 14.5t-34 -14.5t-14 -34.5t14 -35t34 -15q19 0 33.5 15zM277 350q0 71 -29 104.5t-99 33.5q-71 0 -127 -28v62q24 12 61.5 20
t75.5 8q99 0 147 -53t48 -152v-345h-77v350z" />
    <glyph glyph-name="uni0E34" unicode="&#xe34;" 
d="M-488 678h417v-57h-417v57z" />
    <glyph glyph-name="uni0E35" unicode="&#xe35;" 
d="M-487 678h346v106h71v-163h-417v57z" />
    <glyph glyph-name="uni0E36" unicode="&#xe36;" 
d="M-486 673h261q-5 6 -8 17t-3 22q0 41 26.5 64t67.5 23q46 0 69 -25t23 -62q0 -40 -28 -65.5t-73 -25.5h-335v52zM-109.5 678q12.5 13 12.5 34q0 20 -12.5 33t-33.5 13q-20 0 -33 -13t-13 -33q0 -21 12.5 -34t33.5 -13t33.5 13z" />
    <glyph glyph-name="uni0E37" unicode="&#xe37;" 
d="M-486 673h208v111h62v-111h85v111h61v-163h-416v52z" />
    <glyph glyph-name="uni0E38" unicode="&#xe38;" 
d="M-141 -157q0 19 -7 24.5t-28 5.5h-31v65h71q39 0 52.5 -17t13.5 -60v-118h-71v100z" />
    <glyph glyph-name="uni0E39" unicode="&#xe39;" 
d="M-275 -241q-31 25 -31 66v35q0 14 -4 18.5t-17 4.5h-35v55h76q25 0 34.5 -11.5t9.5 -36.5v-58q0 -49 53 -49q52 0 52 49v106h64v-111q0 -42 -30 -67.5t-84 -25.5q-57 0 -88 25z" />
    <glyph glyph-name="uni0E3A" unicode="&#xe3a;" 
d="M-140.5 -135.5q-13.5 13.5 -13.5 32.5t13.5 33t32.5 14t33 -14t14 -33t-14 -32.5t-33 -13.5t-32.5 13.5z" />
    <glyph glyph-name="uni0E3F" unicode="&#xe3f;" horiz-adv-x="641" 
d="M265 0h-195v699h195v103h69v-103h46q91 0 139 -47.5t48 -139.5q0 -54 -25 -93.5t-66 -58.5q115 -30 115 -165q0 -59 -25.5 -103.5t-70 -68t-98.5 -23.5h-63v-103h-69v103zM265 391v242h-117v-242h117zM374 391q56 0 85.5 30.5t29.5 88.5q0 66 -29 94.5t-94 28.5h-32v-242
h40zM265 66v259h-117v-259h117zM380 66q66 0 99.5 30t33.5 101q0 69 -35 98.5t-109 29.5h-35v-259h46z" />
    <glyph glyph-name="uni0E40" unicode="&#xe40;" horiz-adv-x="286" 
d="M94 26q-24 26 -24 72v437h77v-420q0 -29 12 -39.5t40 -10.5h37v-65h-73q-45 0 -69 26z" />
    <glyph glyph-name="uni0E41" unicode="&#xe41;" horiz-adv-x="532" 
d="M94 26q-24 26 -24 72v437h77v-420q0 -29 12 -39.5t40 -10.5h37v-65h-73q-45 0 -69 26zM340 26q-24 26 -24 72v437h77v-420q0 -29 12 -39.5t40 -10.5h37v-65h-73q-45 0 -69 26z" />
    <glyph glyph-name="uni0E42" unicode="&#xe42;" horiz-adv-x="320" 
d="M145 26q-24 26 -24 72v404q0 75 -27 117t-89 67v66h295v-65h-189q46 -28 66.5 -73.5t20.5 -114.5v-384q0 -29 12 -39.5t40 -10.5h37v-65h-73q-45 0 -69 26z" />
    <glyph glyph-name="uni0E43" unicode="&#xe43;" horiz-adv-x="293" 
d="M103 26q-24 26 -24 72v289q0 54 19 89t54 75q22 25 33 43t11 38q0 36 -19 52t-65 16q-59 0 -112 -33v62q55 33 133 33q71 0 105.5 -35.5t34.5 -92.5q0 -28 -13 -50t-39 -51q-32 -37 -48.5 -67.5t-16.5 -75.5v-275q0 -29 12 -39.5t40 -10.5h37v-65h-73q-45 0 -69 26z" />
    <glyph glyph-name="uni0E44" unicode="&#xe44;" horiz-adv-x="320" 
d="M130 29q-24 26 -24 72v396q0 76 20.5 118t72.5 72h-194v65h295v-64q-61 -27 -89 -69.5t-28 -116.5v-384q0 -29 12 -39.5t40 -10.5h37v-65h-73q-45 0 -69 26z" />
    <glyph glyph-name="uni0E45" unicode="&#xe45;" horiz-adv-x="422" 
d="M275 350q0 71 -29 104.5t-99 33.5q-71 0 -127 -28v62q24 12 61.5 20t75.5 8q99 0 147 -53t48 -152v-541h-77v546z" />
    <glyph glyph-name="uni0E46" unicode="&#xe46;" horiz-adv-x="584" 
d="M437 395q0 49 -15 71t-53 22q-31 0 -48.5 -16.5t-24.5 -50.5h-50q-7 36 -20 51.5t-43 15.5q-33 0 -54.5 -28.5t-21.5 -90.5q0 -107 112 -107q39 0 71 9v-61q-40 -10 -82 -10q-79 0 -128.5 41t-49.5 128q0 85 37.5 133t103.5 48q39 0 63.5 -16.5t37.5 -48.5q29 65 108 65
q77 0 105.5 -40t28.5 -120v-390h-77v395z" />
    <glyph glyph-name="uni0E47" unicode="&#xe47;" 
d="M-425.5 646q-29.5 29 -29.5 75q0 57 33 86.5t92 29.5h228v-46h-224q-37 0 -55 -16t-18 -49q0 -30 15.5 -45.5t43.5 -15.5q30 0 46 16t16 42h47q0 -26 15 -40t44 -14h53v-48h-52q-33 0 -55.5 14t-28.5 34q-8 -21 -33 -36.5t-58 -15.5q-50 0 -79.5 29z" />
    <glyph glyph-name="uni0E48" unicode="&#xe48;" 
d="M-146 782h75v-161h-75v161z" />
    <glyph glyph-name="uni0E49" unicode="&#xe49;" 
d="M-271 683q0 13 -4.5 18t-17.5 5h-44v56h65q30 0 43.5 -14.5t13.5 -36.5v-37h205v-53h-261v62z" />
    <glyph glyph-name="uni0E4A" unicode="&#xe4a;" 
d="M-429 706q0 52 25 80t64 28q28 0 44.5 -10.5t25.5 -31.5q17 41 69 41q77 0 77 -84v-62h17q17 0 24.5 8t7.5 26v110h47v-102q0 -45 -20 -66.5t-68 -21.5h-53v82q0 32 -7.5 45.5t-30.5 13.5q-24 0 -33 -13.5t-9 -38.5v-16h-41v16q0 52 -41 52q-23 0 -33.5 -15t-10.5 -47
q0 -42 26 -79h-54q-26 37 -26 85z" />
    <glyph glyph-name="uni0E4B" unicode="&#xe4b;" 
d="M-195 678h-68v60h68v58h75v-58h68v-60h-68v-57h-75v57z" />
    <glyph glyph-name="uni0E4C" unicode="&#xe4c;" 
d="M-294 671q0 70 76 70h221v-53h-191q-20 0 -27.5 -7t-7.5 -26v-34h-71v50z" />
    <glyph glyph-name="uni0E4D" unicode="&#xe4d;" 
d="M-199 639.5q-31 30.5 -31 73.5t31 74.5t74 31.5t74 -31.5t31 -74.5t-31 -73.5t-74 -30.5t-74 30.5zM-91.5 678q14.5 15 14.5 35t-14 34.5t-34 14.5t-34 -14.5t-14 -34.5t14 -35t34 -15q19 0 33.5 15z" />
    <glyph glyph-name="uni0E4E" unicode="&#xe4e;" 
d="M-267 640.5q-26 21.5 -26 58.5q0 38 23 59t61 24q-18 17 -18 41q0 29 22.5 46.5t56.5 17.5q35 0 56 -13v-38q-20 14 -49 14q-38 0 -38 -30q0 -29 42 -38v-36q-19 5 -41 5q-33 0 -48.5 -12t-15.5 -38q0 -22 15 -33t43 -11q37 0 58 17v-39q-25 -16 -69 -16q-46 0 -72 21.5z
" />
    <glyph glyph-name="uni0E4F" unicode="&#xe4f;" horiz-adv-x="607" 
d="M174 17.5q-58 32.5 -91 90.5t-33 132t33 132t91 90.5t129 32.5t129 -32.5t91.5 -90.5t33.5 -132t-33.5 -132t-91.5 -90.5t-129 -32.5t-129 32.5zM402 68.5q44 24.5 69 69t25 102.5t-25 102.5t-69 68.5t-99 24t-98.5 -24.5t-68.5 -68.5t-25 -102t25 -102.5t68.5 -69
t98.5 -24.5t99 24.5zM194.5 129.5q-43.5 42.5 -43.5 110.5q0 45 20 79.5t55 54t78 19.5q42 0 77 -19.5t55 -54t20 -79.5t-20 -80t-55 -54t-77 -19q-66 0 -109.5 42.5zM373.5 168q26.5 27 26.5 72t-27 72t-69 27t-69.5 -27t-27.5 -72t27 -72t70 -27t69.5 27z" />
    <glyph glyph-name="uni0E50" unicode="&#xe50;" horiz-adv-x="636" 
d="M179 17q-61 32 -95 90t-34 133t34 133t95 90t139 32q77 0 138 -32t95.5 -90t34.5 -133t-34.5 -133t-95.5 -90t-138 -32q-78 0 -139 32zM416 69.5q43 23.5 68 67.5t25 103q0 58 -25 101.5t-68.5 67.5t-97.5 24t-97.5 -24t-68.5 -67.5t-25 -101.5q0 -59 25 -103t68 -67.5
t98 -23.5t98 23.5z" />
    <glyph glyph-name="uni0E51" unicode="&#xe51;" horiz-adv-x="634" 
d="M277 -18q117 27 173.5 86t56.5 163q0 202 -197 202q-87 0 -135 -44.5t-48 -123.5q0 -70 38.5 -106t107.5 -36q26 0 50 6t41 17v-59q-42 -25 -106 -25q-94 0 -151 55t-57 148q0 107 69.5 168.5t190.5 61.5q135 0 204.5 -70t69.5 -192q0 -121 -76.5 -202t-230.5 -117v68z
" />
    <glyph glyph-name="uni0E52" unicode="&#xe52;" horiz-adv-x="713" 
d="M146 47q-76 62 -76 193v310h70v-323q0 -89 58 -134.5t163 -45.5q87 0 149.5 41t62.5 136v139q0 36 -14 52.5t-44 16.5q-26 0 -44 -17t-27 -51h-51q-8 36 -21.5 52.5t-40.5 16.5q-32 0 -49.5 -28.5t-17.5 -86.5q0 -56 27.5 -83t74.5 -27q44 0 68 9v-61q-31 -8 -73 -8
q-75 0 -119.5 44t-44.5 126q0 79 33.5 128t93.5 49q72 0 95 -67q12 31 39 49t64 18q59 0 90 -32t31 -92v-145q0 -117 -77 -179t-205 -62q-139 0 -215 62z" />
    <glyph glyph-name="uni0E53" unicode="&#xe53;" horiz-adv-x="663" 
d="M139 13.5q-42 28.5 -65.5 84t-23.5 132.5q0 129 48.5 197t132.5 68q72 0 104 -55q18 25 49 40t66 15q61 0 102 -35.5t41 -96.5v-363h-77v357q0 76 -76 76q-31 0 -51.5 -18.5t-20.5 -49.5v-192h-69v192q0 33 -16.5 50.5t-47.5 17.5q-53 0 -80.5 -52.5t-27.5 -151.5
q0 -91 30.5 -136.5t83.5 -45.5q49 0 76 10v-63q-41 -9 -82 -9q-54 0 -96 28.5z" />
    <glyph glyph-name="uni0E54" unicode="&#xe54;" horiz-adv-x="629" 
d="M117 59q-67 59 -67 174q0 79 34 139t100.5 93.5t161.5 33.5q64 0 93.5 2.5t50.5 16.5t30 46h74q-19 -70 -69.5 -98.5t-152.5 -28.5q-126 0 -185.5 -49.5t-59.5 -155.5q0 -89 43.5 -128t126.5 -39h70q-25 15 -39.5 43t-14.5 63q0 62 42 99.5t112 37.5q60 0 95 -18v-62
q-13 8 -34.5 13t-44.5 5q-47 0 -70 -23t-23 -65q0 -93 115 -93h81v-65h-285q-117 0 -184 59z" />
    <glyph glyph-name="uni0E55" unicode="&#xe55;" horiz-adv-x="629" 
d="M117 59q-67 59 -67 174q0 112 62.5 179t173.5 79q-8 9 -13 22.5t-5 27.5q0 41 26 65t66 24t65 -24t25 -61q0 -27 -15 -44q36 2 56 16t29 47h74q-19 -70 -70 -98t-152 -28q-125 0 -185 -50t-60 -156q0 -89 43.5 -128t126.5 -39h70q-25 15 -39.5 43t-14.5 63q0 62 42 99.5
t112 37.5q60 0 95 -18v-62q-13 8 -34.5 13t-44.5 5q-47 0 -70 -23t-23 -65q0 -93 115 -93h81v-65h-285q-117 0 -184 59zM392 507q12 13 12 34q0 20 -11.5 32.5t-33.5 12.5q-20 0 -32 -13t-12 -32q0 -21 12 -34t32 -13q21 0 33 13z" />
    <glyph glyph-name="uni0E56" unicode="&#xe56;" horiz-adv-x="655" 
d="M213 1q-57 16 -91 46v66q87 -67 208 -67q89 0 143.5 50.5t54.5 140.5q0 91 -45 143.5t-137 52.5q-69 0 -121 -34.5t-76 -106.5h-57l-62 259h65l40 -174q27 56 84.5 87t135.5 31q124 0 187 -71.5t63 -186.5q0 -73 -34 -130.5t-96 -89.5t-143 -32q-62 0 -119 16z" />
    <glyph glyph-name="uni0E57" unicode="&#xe57;" horiz-adv-x="829" 
d="M139 13.5q-42 28.5 -65.5 84t-23.5 132.5q0 129 47.5 197t130.5 68q71 0 103 -55q18 26 48 40.5t66 14.5q61 0 99 -35.5t38 -96.5v-298q52 0 77 21t25 75v389h75v-375q0 -98 -50 -136.5t-141 -38.5h-60v357q0 39 -18.5 57.5t-55.5 18.5q-31 0 -51.5 -17.5t-20.5 -48.5
v-194h-65v194q0 66 -65 66q-52 0 -78.5 -52.5t-26.5 -151.5q0 -91 30.5 -136.5t83.5 -45.5q49 0 76 10v-63q-41 -9 -82 -9q-54 0 -96 28.5z" />
    <glyph glyph-name="uni0E58" unicode="&#xe58;" horiz-adv-x="657" 
d="M95.5 43.5q-45.5 58.5 -45.5 181.5q0 127 75.5 200.5t215.5 73.5q62 0 94 3t54 17t31 45h74q-19 -70 -71.5 -98.5t-155.5 -28.5q-119 0 -179.5 -51t-60.5 -161q0 -95 24 -136.5t76 -41.5q33 0 53 16t20 47v70h73v-70q0 -30 23 -46.5t53 -16.5q41 0 64 28t23 86
q0 47 -20.5 71t-54.5 24q-43 0 -67 -15v62q32 15 81 15q56 0 94 -41t38 -116q0 -84 -41.5 -130t-110.5 -46q-35 0 -68.5 13.5t-50.5 37.5q-16 -25 -46 -38t-67 -13q-82 0 -127.5 58.5z" />
    <glyph glyph-name="uni0E59" unicode="&#xe59;" horiz-adv-x="715" 
d="M140.5 13q-42.5 28 -66.5 83t-24 132q0 130 48.5 198.5t135.5 68.5q72 0 104 -55q36 55 106 55q47 0 77.5 -21t40.5 -62l57 138h66l-111 -271h-62l18 43q2 54 -19 82.5t-63 28.5q-71 0 -71 -58q0 -17 6 -38l99 -337h-67l-106 362q-11 37 -27.5 54t-51.5 17
q-52 0 -77.5 -53.5t-25.5 -151.5q0 -91 32 -136t89 -45q36 0 64 9v-63q-37 -8 -76 -8q-53 0 -95.5 28z" />
    <glyph glyph-name="uni0E5A" unicode="&#xe5a;" horiz-adv-x="833" 
d="M379 274q-29 -20 -68.5 -30t-83.5 -10q-78 0 -127.5 41t-49.5 116q0 76 45 117.5t116 41.5q53 0 84 -12v-59q-31 9 -66 9q-47 0 -74.5 -24t-27.5 -73t31 -72t84 -23q79 0 137 42v197h77v-204q35 -35 96 -35q76 0 134 42v197h77v-535h-77v274q-59 -40 -150 -40
q-23 0 -44 6t-36 18v-258h-77v274z" />
    <glyph glyph-name="uni0E5B" unicode="&#xe5b;" horiz-adv-x="1133" 
d="M121 49.5q-71 64.5 -71 188.5q0 74 28.5 132t81 91.5t122.5 33.5q103 0 157 -53t54 -143q0 -95 -46.5 -139t-118.5 -44q-51 0 -92 23v67q36 -26 87 -26q49 0 76 25t27 94q-1 64 -35 98t-109 34q-79 0 -122 -51t-43 -142q0 -98 51 -143.5t152 -45.5q121 0 177 61.5
t56 189.5v99h79l53 -185h2l32 171h62l49 -162h2l28 142h50l49 -132h2l21 57h101v-53h-73l-26 -78h-45l-45 119h-2l-36 -144h-48l-55 160h-2l-39 -181h-49l-53 190h-2q1 -12 1 -34q0 -86 -34.5 -150t-99.5 -99t-155 -35q-128 0 -199 64.5z" />
    <glyph glyph-name="uni1E0C" unicode="&#x1e0c;" horiz-adv-x="701" 
d="M70 699h216q112 0 194.5 -42t126.5 -120t44 -184q0 -175 -100 -264t-281 -89h-200v699zM265 66q158 0 233 72.5t75 214.5q0 132 -73 206t-215 74h-137v-567h117zM240 -137.5q-15 14.5 -15 34.5t15 34.5t35 14.5t34.5 -14.5t14.5 -34.5t-14.5 -34.5t-34.5 -14.5t-35 14.5z
" />
    <glyph glyph-name="uni1E0D" unicode="&#x1e0d;" horiz-adv-x="656" 
d="M173 16q-57 31 -90 89t-33 134q0 75 32.5 133.5t90 90.5t128.5 32q69 0 122.5 -24.5t85.5 -71.5v340h77v-739h-75v84q-38 -50 -89.5 -74.5t-120.5 -24.5q-71 0 -128 31zM437.5 81.5q51.5 35.5 71.5 97.5v120q-19 62 -70.5 98t-121.5 36q-53 0 -96.5 -24.5t-68.5 -68.5
t-25 -101t25 -101t68.5 -68t96.5 -24q69 0 120.5 35.5zM298 -137.5q-15 14.5 -15 34.5t15 34.5t35 14.5t34.5 -14.5t14.5 -34.5t-14.5 -34.5t-34.5 -14.5t-35 14.5z" />
    <glyph glyph-name="uni1E0E" unicode="&#x1e0e;" horiz-adv-x="701" 
d="M70 699h216q112 0 194.5 -42t126.5 -120t44 -184q0 -175 -100 -264t-281 -89h-200v699zM265 66q158 0 233 72.5t75 214.5q0 132 -73 206t-215 74h-137v-567h117zM121 -74h305v-57h-305v57z" />
    <glyph glyph-name="uni1E0F" unicode="&#x1e0f;" horiz-adv-x="656" 
d="M173 16q-57 31 -90 89t-33 134q0 75 32.5 133.5t90 90.5t128.5 32q69 0 122.5 -24.5t85.5 -71.5v340h77v-739h-75v84q-38 -50 -89.5 -74.5t-120.5 -24.5q-71 0 -128 31zM437.5 81.5q51.5 35.5 71.5 97.5v120q-19 62 -70.5 98t-121.5 36q-53 0 -96.5 -24.5t-68.5 -68.5
t-25 -101t25 -101t68.5 -68t96.5 -24q69 0 120.5 35.5zM188 -74h305v-57h-305v57z" />
    <glyph glyph-name="uni1E20" unicode="&#x1e20;" horiz-adv-x="720" 
d="M271 816h301v-54h-301v54zM227.5 30q-83.5 45 -130.5 127.5t-47 191.5t47 191.5t130.5 128t189.5 45.5q145 0 240 -76v-76q-90 81 -234 81q-85 0 -152 -36t-105 -102.5t-38 -155.5t38 -155.5t104.5 -102.5t150.5 -36q49 0 95 11.5t76 30.5v215h-147v66h225v-314
q-49 -41 -111.5 -60t-141.5 -19q-106 0 -189.5 45z" />
    <glyph glyph-name="uni1E21" unicode="&#x1e21;" horiz-adv-x="656" 
d="M168 609h301v-54h-301v54zM224 -222q-46 8 -78 22v65q76 -34 172 -34q98 0 144.5 44.5t46.5 134.5v71q-65 -96 -206 -96q-71 0 -129 31.5t-91 89.5t-33 133q0 76 33 134t90 90t128 32q74 0 123 -22.5t87 -73.5v81h75v-460q0 -122 -66 -186t-202 -64q-48 0 -94 8zM439 82
q51 36 70 99v119q-20 63 -71 98t-121 35q-53 0 -96.5 -24.5t-68.5 -68.5t-25 -101q0 -58 25 -101.5t68.5 -67.5t96.5 -24q71 0 122 36z" />
    <glyph glyph-name="uni1E24" unicode="&#x1e24;" horiz-adv-x="690" 
d="M70 699h78v-310h394v310h78v-699h-78v323h-394v-323h-78v699zM311 -137.5q-15 14.5 -15 34.5t15 34.5t35 14.5t34.5 -14.5t14.5 -34.5t-14.5 -34.5t-34.5 -14.5t-35 14.5z" />
    <glyph glyph-name="uni1E25" unicode="&#x1e25;" horiz-adv-x="591" 
d="M70 739h77v-329q69 85 191 85q95 0 141.5 -50t46.5 -134v-311h-77v304q0 62 -30 95.5t-96 33.5q-111 0 -176 -100v-333h-77v739zM270 -137.5q-15 14.5 -15 34.5t15 34.5t35 14.5t34.5 -14.5t14.5 -34.5t-14.5 -34.5t-34.5 -14.5t-35 14.5z" />
    <glyph glyph-name="uni1E2A" unicode="&#x1e2a;" horiz-adv-x="690" 
d="M70 699h78v-310h394v310h78v-699h-78v323h-394v-323h-78v699zM244 -156.5q-38 36.5 -38 93.5h60q0 -35 21.5 -55.5t58.5 -20.5t58.5 20.5t21.5 55.5h59q0 -57 -38 -93.5t-101 -36.5q-64 0 -102 36.5z" />
    <glyph glyph-name="uni1E2B" unicode="&#x1e2b;" horiz-adv-x="591" 
d="M70 739h77v-329q69 85 191 85q95 0 141.5 -50t46.5 -134v-311h-77v304q0 62 -30 95.5t-96 33.5q-111 0 -176 -100v-333h-77v739zM200 -156.5q-38 36.5 -38 93.5h60q0 -35 21.5 -55.5t58.5 -20.5t58.5 20.5t21.5 55.5h59q0 -57 -38 -93.5t-101 -36.5q-64 0 -102 36.5z" />
    <glyph glyph-name="uni1E36" unicode="&#x1e36;" horiz-adv-x="545" 
d="M70 699h78v-633h372v-66h-450v699zM250 -137.5q-15 14.5 -15 34.5t15 34.5t35 14.5t34.5 -14.5t14.5 -34.5t-14.5 -34.5t-34.5 -14.5t-35 14.5z" />
    <glyph glyph-name="uni1E37" unicode="&#x1e37;" horiz-adv-x="217" 
d="M70 739h77v-739h-77v739zM74 -137.5q-15 14.5 -15 34.5t15 34.5t35 14.5t34.5 -14.5t14.5 -34.5t-14.5 -34.5t-34.5 -14.5t-35 14.5z" />
    <glyph glyph-name="uni1E38" unicode="&#x1e38;" horiz-adv-x="545" 
d="M71 838h301v-54h-301v54zM70 699h78v-633h372v-66h-450v699zM254 -137.5q-15 14.5 -15 34.5t15 34.5t35 14.5t34.5 -14.5t14.5 -34.5t-14.5 -34.5t-34.5 -14.5t-35 14.5z" />
    <glyph glyph-name="uni1E39" unicode="&#x1e39;" horiz-adv-x="221" 
d="M-40 838h301v-54h-301v54zM72 739h77v-739h-77v739zM76 -137.5q-15 14.5 -15 34.5t15 34.5t35 14.5t34.5 -14.5t14.5 -34.5t-14.5 -34.5t-34.5 -14.5t-35 14.5z" />
    <glyph glyph-name="uni1E3A" unicode="&#x1e3a;" horiz-adv-x="545" 
d="M70 699h78v-633h372v-66h-450v699zM141 -74h305v-57h-305v57z" />
    <glyph glyph-name="uni1E3B" unicode="&#x1e3b;" horiz-adv-x="217" 
d="M70 739h77v-739h-77v739zM-44 -74h305v-57h-305v57z" />
    <glyph glyph-name="uni1E42" unicode="&#x1e42;" horiz-adv-x="828" 
d="M70 699h80l264 -577l264 577h80v-699h-77v540l-247 -540h-40l-247 540v-540h-77v699zM380 -137.5q-15 14.5 -15 34.5t15 34.5t35 14.5t34.5 -14.5t14.5 -34.5t-14.5 -34.5t-34.5 -14.5t-35 14.5z" />
    <glyph glyph-name="uni1E43" unicode="&#x1e43;" horiz-adv-x="863" 
d="M70 480h74v-75q69 90 171 90q60 0 93.5 -21t48.5 -63q32 43 79.5 63.5t97.5 20.5q86 0 125 -44t39 -130v-321h-76v312q0 67 -23.5 94t-83.5 27q-86 0 -142 -77q3 -14 3 -46v-310h-75v310q0 67 -22 95t-82 28q-86 0 -151 -96v-337h-76v480zM406 -137.5q-15 14.5 -15 34.5
t15 34.5t35 14.5t34.5 -14.5t14.5 -34.5t-14.5 -34.5t-34.5 -14.5t-35 14.5z" />
    <glyph glyph-name="uni1E44" unicode="&#x1e44;" horiz-adv-x="678" 
d="M315 756.5q-15 14.5 -15 34.5t15 34.5t35 14.5t34.5 -14.5t14.5 -34.5t-14.5 -34.5t-34.5 -14.5t-35 14.5zM70 699h75l385 -566v566h78v-699h-75l-385 567v-567h-78v699z" />
    <glyph glyph-name="uni1E45" unicode="&#x1e45;" horiz-adv-x="591" 
d="M267 549.5q-15 14.5 -15 34.5t15 34.5t35 14.5t34.5 -14.5t14.5 -34.5t-14.5 -34.5t-34.5 -14.5t-35 14.5zM70 480h75v-72q35 45 85.5 66t107.5 21q95 0 141.5 -50t46.5 -134v-311h-77v304q0 62 -30 95.5t-96 33.5q-111 0 -176 -100v-333h-77v480z" />
    <glyph glyph-name="uni1E46" unicode="&#x1e46;" horiz-adv-x="678" 
d="M70 699h75l385 -566v566h78v-699h-75l-385 567v-567h-78v699zM310 -137.5q-15 14.5 -15 34.5t15 34.5t35 14.5t34.5 -14.5t14.5 -34.5t-14.5 -34.5t-34.5 -14.5t-35 14.5z" />
    <glyph glyph-name="uni1E47" unicode="&#x1e47;" horiz-adv-x="591" 
d="M70 480h75v-72q35 45 85.5 66t107.5 21q95 0 141.5 -50t46.5 -134v-311h-77v304q0 62 -30 95.5t-96 33.5q-111 0 -176 -100v-333h-77v480zM265 -137.5q-15 14.5 -15 34.5t15 34.5t35 14.5t34.5 -14.5t14.5 -34.5t-14.5 -34.5t-34.5 -14.5t-35 14.5z" />
    <glyph glyph-name="uni1E48" unicode="&#x1e48;" horiz-adv-x="678" 
d="M70 699h75l385 -566v566h78v-699h-75l-385 567v-567h-78v699zM199 -74h305v-57h-305v57z" />
    <glyph glyph-name="uni1E49" unicode="&#x1e49;" horiz-adv-x="591" 
d="M70 480h75v-72q35 45 85.5 66t107.5 21q95 0 141.5 -50t46.5 -134v-311h-77v304q0 62 -30 95.5t-96 33.5q-111 0 -176 -100v-333h-77v480zM147 -74h305v-57h-305v57z" />
    <glyph glyph-name="uni1E5A" unicode="&#x1e5a;" horiz-adv-x="612" 
d="M70 699h270q109 0 165.5 -51t56.5 -151q0 -76 -44.5 -129t-123.5 -67l166 -301h-81l-164 297h-167v-297h-78v699zM330 363q72 0 113 34t41 100q0 74 -40.5 105t-113.5 31h-182v-270h182zM262 -137.5q-15 14.5 -15 34.5t15 34.5t35 14.5t34.5 -14.5t14.5 -34.5
t-14.5 -34.5t-34.5 -14.5t-35 14.5z" />
    <glyph glyph-name="uni1E5B" unicode="&#x1e5b;" horiz-adv-x="392" 
d="M70 480h75v-94q58 94 217 94v-62q-174 0 -215 -115v-303h-77v480zM72 -137.5q-15 14.5 -15 34.5t15 34.5t35 14.5t34.5 -14.5t14.5 -34.5t-14.5 -34.5t-34.5 -14.5t-35 14.5z" />
    <glyph glyph-name="uni1E5C" unicode="&#x1e5c;" horiz-adv-x="612" 
d="M125 841h301v-54h-301v54zM70 699h270q109 0 165.5 -51t56.5 -151q0 -76 -44.5 -129t-123.5 -67l166 -301h-81l-164 297h-167v-297h-78v699zM330 363q72 0 113 34t41 100q0 74 -40.5 105t-113.5 31h-182v-270h182zM240 -137.5q-15 14.5 -15 34.5t15 34.5t35 14.5
t34.5 -14.5t14.5 -34.5t-14.5 -34.5t-34.5 -14.5t-35 14.5z" />
    <glyph glyph-name="uni1E5D" unicode="&#x1e5d;" horiz-adv-x="392" 
d="M64 648h301v-54h-301v54zM70 480h75v-94q58 94 217 94v-62q-174 0 -215 -115v-303h-77v480zM72 -137.5q-15 14.5 -15 34.5t15 34.5t35 14.5t34.5 -14.5t14.5 -34.5t-14.5 -34.5t-34.5 -14.5t-35 14.5z" />
    <glyph glyph-name="uni1E5E" unicode="&#x1e5e;" horiz-adv-x="612" 
d="M70 699h270q109 0 165.5 -51t56.5 -151q0 -76 -44.5 -129t-123.5 -67l166 -301h-81l-164 297h-167v-297h-78v699zM330 363q72 0 113 34t41 100q0 74 -40.5 105t-113.5 31h-182v-270h182zM135 -74h305v-57h-305v57z" />
    <glyph glyph-name="uni1E5F" unicode="&#x1e5f;" horiz-adv-x="392" 
d="M70 480h75v-94q58 94 217 94v-62q-174 0 -215 -115v-303h-77v480zM46 -74h305v-57h-305v57z" />
    <glyph glyph-name="uni1E60" unicode="&#x1e60;" horiz-adv-x="555" 
d="M257 756.5q-15 14.5 -15 34.5t15 34.5t35 14.5t34.5 -14.5t14.5 -34.5t-14.5 -34.5t-34.5 -14.5t-35 14.5zM142 -5q-56 10 -92 27v74q94 -41 202 -41q90 0 132.5 29t42.5 87q0 41 -17.5 65t-50.5 40.5t-114 49.5q-99 40 -143.5 87.5t-44.5 120.5q0 53 28.5 94t80.5 63.5
t120 22.5q55 0 99.5 -8.5t87.5 -27.5v-71q-84 37 -176 37q-80 0 -121 -29t-41 -81q0 -35 17 -60t53.5 -46t100.5 -46q72 -28 113 -52.5t63.5 -62t22.5 -96.5q0 -89 -63 -137.5t-186 -48.5q-58 0 -114 10z" />
    <glyph glyph-name="uni1E61" unicode="&#x1e61;" horiz-adv-x="479" 
d="M205 549.5q-15 14.5 -15 34.5t15 34.5t35 14.5t34.5 -14.5t14.5 -34.5t-14.5 -34.5t-34.5 -14.5t-35 14.5zM136 -1.5q-54 13.5 -84 33.5v65q38 -23 87.5 -37t95.5 -14q62 0 89.5 17.5t27.5 52.5q0 27 -12 42.5t-40 27.5t-87 28q-58 16 -92.5 33.5t-52.5 44.5t-18 69
q0 65 52.5 99.5t139.5 34.5q47 0 88.5 -8.5t69.5 -23.5v-65q-29 16 -70 25.5t-85 9.5q-58 0 -88 -17t-30 -55q0 -26 10.5 -40t39 -25.5t91.5 -28.5q90 -25 125.5 -58.5t35.5 -92.5q0 -61 -47.5 -96t-144.5 -35q-47 0 -101 13.5z" />
    <glyph glyph-name="uni1E62" unicode="&#x1e62;" horiz-adv-x="555" 
d="M142 -5q-56 10 -92 27v74q94 -41 202 -41q90 0 132.5 29t42.5 87q0 41 -17.5 65t-50.5 40.5t-114 49.5q-99 40 -143.5 87.5t-44.5 120.5q0 53 28.5 94t80.5 63.5t120 22.5q55 0 99.5 -8.5t87.5 -27.5v-71q-84 37 -176 37q-80 0 -121 -29t-41 -81q0 -35 17 -60t53.5 -46
t100.5 -46q72 -28 113 -52.5t63.5 -62t22.5 -96.5q0 -89 -63 -137.5t-186 -48.5q-58 0 -114 10zM235 -137.5q-15 14.5 -15 34.5t15 34.5t35 14.5t34.5 -14.5t14.5 -34.5t-14.5 -34.5t-34.5 -14.5t-35 14.5z" />
    <glyph glyph-name="uni1E63" unicode="&#x1e63;" horiz-adv-x="479" 
d="M136 -1.5q-54 13.5 -84 33.5v65q38 -23 87.5 -37t95.5 -14q62 0 89.5 17.5t27.5 52.5q0 27 -12 42.5t-40 27.5t-87 28q-58 16 -92.5 33.5t-52.5 44.5t-18 69q0 65 52.5 99.5t139.5 34.5q47 0 88.5 -8.5t69.5 -23.5v-65q-29 16 -70 25.5t-85 9.5q-58 0 -88 -17t-30 -55
q0 -26 10.5 -40t39 -25.5t91.5 -28.5q90 -25 125.5 -58.5t35.5 -92.5q0 -61 -47.5 -96t-144.5 -35q-47 0 -101 13.5zM202 -137.5q-15 14.5 -15 34.5t15 34.5t35 14.5t34.5 -14.5t14.5 -34.5t-14.5 -34.5t-34.5 -14.5t-35 14.5z" />
    <glyph glyph-name="uni1E6C" unicode="&#x1e6c;" horiz-adv-x="586" 
d="M254 633h-224v66h526v-66h-224v-633h-78v633zM259 -137.5q-15 14.5 -15 34.5t15 34.5t35 14.5t34.5 -14.5t14.5 -34.5t-14.5 -34.5t-34.5 -14.5t-35 14.5z" />
    <glyph glyph-name="uni1E6D" unicode="&#x1e6d;" horiz-adv-x="365" 
d="M142.5 25q-37.5 40 -37.5 114v281h-75v60h75v144h77v-144h121v-60h-121v-283q0 -50 20 -70.5t73 -20.5q26 0 55 12v-63q-33 -10 -82 -10q-68 0 -105.5 40zM197 -137.5q-15 14.5 -15 34.5t15 34.5t35 14.5t34.5 -14.5t14.5 -34.5t-14.5 -34.5t-34.5 -14.5t-35 14.5z" />
    <glyph glyph-name="uni1E6E" unicode="&#x1e6e;" horiz-adv-x="586" 
d="M254 633h-224v66h526v-66h-224v-633h-78v633zM140 -74h305v-57h-305v57z" />
    <glyph glyph-name="uni1E6F" unicode="&#x1e6f;" horiz-adv-x="372" 
d="M142.5 25q-37.5 40 -37.5 114v281h-75v60h75v144h77v-144h121v-60h-121v-283q0 -50 20 -70.5t73 -20.5q26 0 55 12v-63q-33 -10 -82 -10q-68 0 -105.5 40zM32 -74h305v-57h-305v57z" />
    <glyph glyph-name="Wgrave" unicode="&#x1e80;" horiz-adv-x="1009" 
d="M384 912h81l68 -170h-69zM50 699h81l172 -567l172 567h62l169 -568l172 568h81l-209 -699h-76l-170 571l-169 -571h-76z" />
    <glyph glyph-name="wgrave" unicode="&#x1e81;" horiz-adv-x="806" 
d="M287 705h81l68 -170h-69zM50 480h80l119 -387l117 387h73l118 -387l118 387h81l-154 -480h-79l-120 391l-120 -391h-80z" />
    <glyph glyph-name="Wacute" unicode="&#x1e82;" horiz-adv-x="1009" 
d="M544 912h81l-80 -170h-69zM50 699h81l172 -567l172 567h62l169 -568l172 568h81l-209 -699h-76l-170 571l-169 -571h-76z" />
    <glyph glyph-name="wacute" unicode="&#x1e83;" horiz-adv-x="806" 
d="M442 705h81l-80 -170h-69zM50 480h80l119 -387l117 387h73l118 -387l118 387h81l-154 -480h-79l-120 391l-120 -391h-80z" />
    <glyph glyph-name="Wdieresis" unicode="&#x1e84;" horiz-adv-x="1009" 
d="M361 756.5q-15 14.5 -15 34.5t15 34.5t35 14.5t34.5 -14.5t14.5 -34.5t-14.5 -34.5t-34.5 -14.5t-35 14.5zM578 756.5q-15 14.5 -15 34.5t15 34.5t35 14.5t34.5 -14.5t14.5 -34.5t-14.5 -34.5t-34.5 -14.5t-35 14.5zM50 699h81l172 -567l172 567h62l169 -568l172 568h81
l-209 -699h-76l-170 571l-169 -571h-76z" />
    <glyph glyph-name="wdieresis" unicode="&#x1e85;" horiz-adv-x="806" 
d="M260 549.5q-15 14.5 -15 34.5t15 34.5t35 14.5t34.5 -14.5t14.5 -34.5t-14.5 -34.5t-34.5 -14.5t-35 14.5zM477 549.5q-15 14.5 -15 34.5t15 34.5t35 14.5t34.5 -14.5t14.5 -34.5t-14.5 -34.5t-34.5 -14.5t-35 14.5zM50 480h80l119 -387l117 387h73l118 -387l118 387h81
l-154 -480h-79l-120 391l-120 -391h-80z" />
    <glyph glyph-name="uni1E8E" unicode="&#x1e8e;" horiz-adv-x="686" 
d="M309 756.5q-15 14.5 -15 34.5t15 34.5t35 14.5t34.5 -14.5t14.5 -34.5t-14.5 -34.5t-34.5 -14.5t-35 14.5zM304 265l-254 434h83l210 -363l211 363h82l-254 -434v-265h-78v265z" />
    <glyph glyph-name="uni1E8F" unicode="&#x1e8f;" horiz-adv-x="575" 
d="M270 549.5q-15 14.5 -15 34.5t15 34.5t35 14.5t34.5 -14.5t14.5 -34.5t-14.5 -34.5t-34.5 -14.5t-35 14.5zM78 -189v62q11 -4 31.5 -7t34.5 -3q34 0 55 18t38 60l26 62l-213 477h82l172 -388l159 388h82l-222 -544q-28 -69 -65.5 -101.5t-97.5 -32.5q-46 0 -82 9z" />
    <glyph glyph-name="uni1E92" unicode="&#x1e92;" horiz-adv-x="617" 
d="M50 55l408 578h-398v66h492v-56l-407 -578h422v-65h-517v55zM283 -137.5q-15 14.5 -15 34.5t15 34.5t35 14.5t34.5 -14.5t14.5 -34.5t-14.5 -34.5t-34.5 -14.5t-35 14.5z" />
    <glyph glyph-name="uni1E93" unicode="&#x1e93;" horiz-adv-x="483" 
d="M50 52l291 368h-286v60h380v-52l-291 -368h304v-60h-398v52zM211 -137.5q-15 14.5 -15 34.5t15 34.5t35 14.5t34.5 -14.5t14.5 -34.5t-14.5 -34.5t-34.5 -14.5t-35 14.5z" />
    <glyph glyph-name="uni1E97" unicode="&#x1e97;" horiz-adv-x="418" 
d="M42 687.5q-15 14.5 -15 34.5t15 34.5t35 14.5t34.5 -14.5t14.5 -34.5t-14.5 -34.5t-34.5 -14.5t-35 14.5zM259 687.5q-15 14.5 -15 34.5t15 34.5t35 14.5t34.5 -14.5t14.5 -34.5t-14.5 -34.5t-34.5 -14.5t-35 14.5zM195.5 25q-37.5 40 -37.5 114v281h-75v60h75v144h77
v-144h121v-60h-121v-283q0 -50 20 -70.5t73 -20.5q26 0 55 12v-63q-33 -10 -82 -10q-68 0 -105.5 40z" />
    <glyph glyph-name="uni1E9E" unicode="&#x1e9e;" horiz-adv-x="614" 
d="M211 5v71q26 -12 54 -16.5t66 -4.5q79 0 117 36t38 107q0 137 -176 137h-38v52l147 145q-5 50 -39.5 80.5t-90.5 30.5q-65 0 -105.5 -38t-40.5 -121v-484h-78v480q0 117 59.5 175.5t164.5 58.5q68 0 115.5 -26t71.5 -69.5t26 -97.5l-136 -132q198 -14 198 -191
q0 -95 -56.5 -154t-162.5 -59q-89 0 -134 20z" />
    <glyph glyph-name="uni1EA0" unicode="&#x1ea0;" horiz-adv-x="731" 
d="M329 699h73l279 -699h-80l-75 187h-322l-74 -187h-80zM504 253l-139 356l-138 -356h277zM331 -137.5q-15 14.5 -15 34.5t15 34.5t35 14.5t34.5 -14.5t14.5 -34.5t-14.5 -34.5t-34.5 -14.5t-35 14.5z" />
    <glyph glyph-name="uni1EA1" unicode="&#x1ea1;" horiz-adv-x="562" 
d="M100.5 28.5q-50.5 43.5 -50.5 119.5q0 79 49 121.5t142 42.5q104 0 179 -43v36q0 65 -37 96.5t-117 31.5q-85 0 -157 -32v65q30 13 76 21t88 8q114 0 169 -51.5t55 -142.5v-301h-72v62q-63 -77 -187 -77q-87 0 -137.5 43.5zM354.5 69.5q43.5 21.5 65.5 60.5v77
q-39 23 -77.5 33.5t-86.5 10.5q-68 0 -98.5 -25.5t-30.5 -77.5q0 -100 130 -100q54 0 97.5 21.5zM241 -137.5q-15 14.5 -15 34.5t15 34.5t35 14.5t34.5 -14.5t14.5 -34.5t-14.5 -34.5t-34.5 -14.5t-35 14.5z" />
    <glyph glyph-name="uni1EA2" unicode="&#x1ea2;" horiz-adv-x="731" 
d="M331 810q48 0 70.5 13.5t22.5 44.5q0 26 -17 38t-53 12q-14 0 -33 -3t-27 -7v45q13 5 34.5 8t41.5 3q60 0 91 -25t31 -68q0 -37 -24.5 -63.5t-69.5 -30.5v-35h-67v68zM329 699h73l279 -699h-80l-75 187h-322l-74 -187h-80zM504 253l-139 356l-138 -356h277z" />
    <glyph glyph-name="uni1EA3" unicode="&#x1ea3;" horiz-adv-x="562" 
d="M254 603q48 0 70.5 13.5t22.5 44.5q0 26 -17 38t-53 12q-14 0 -33 -3t-27 -7v45q13 5 34.5 8t41.5 3q60 0 91 -25t31 -68q0 -37 -24.5 -63.5t-69.5 -30.5v-35h-67v68zM100.5 28.5q-50.5 43.5 -50.5 119.5q0 79 49 121.5t142 42.5q104 0 179 -43v36q0 65 -37 96.5
t-117 31.5q-85 0 -157 -32v65q30 13 76 21t88 8q114 0 169 -51.5t55 -142.5v-301h-72v62q-63 -77 -187 -77q-87 0 -137.5 43.5zM354.5 69.5q43.5 21.5 65.5 60.5v77q-39 23 -77.5 33.5t-86.5 10.5q-68 0 -98.5 -25.5t-30.5 -77.5q0 -100 130 -100q54 0 97.5 21.5z" />
    <glyph glyph-name="uni1EA4" unicode="&#x1ea4;" horiz-adv-x="731" 
d="M518 965h64l-81 -120h-54zM327 880h67l137 -138h-78l-92 95l-92 -95h-79zM329 699h73l279 -699h-80l-75 187h-322l-74 -187h-80zM504 253l-139 356l-138 -356h277z" />
    <glyph glyph-name="uni1EA5" unicode="&#x1ea5;" horiz-adv-x="562" 
d="M452 758h64l-81 -120h-54zM261 673h67l137 -138h-78l-92 95l-92 -95h-79zM100.5 28.5q-50.5 43.5 -50.5 119.5q0 79 49 121.5t142 42.5q104 0 179 -43v36q0 65 -37 96.5t-117 31.5q-85 0 -157 -32v65q30 13 76 21t88 8q114 0 169 -51.5t55 -142.5v-301h-72v62
q-63 -77 -187 -77q-87 0 -137.5 43.5zM354.5 69.5q43.5 21.5 65.5 60.5v77q-39 23 -77.5 33.5t-86.5 10.5q-68 0 -98.5 -25.5t-30.5 -77.5q0 -100 130 -100q54 0 97.5 21.5z" />
    <glyph glyph-name="uni1EA6" unicode="&#x1ea6;" horiz-adv-x="731" 
d="M143 965h64l71 -120h-54zM331 880h67l137 -138h-79l-92 95l-92 -95h-78zM329 699h73l279 -699h-80l-75 187h-322l-74 -187h-80zM504 253l-139 356l-138 -356h277z" />
    <glyph glyph-name="uni1EA7" unicode="&#x1ea7;" horiz-adv-x="562" 
d="M63 758h64l71 -120h-54zM251 673h67l137 -138h-79l-92 95l-92 -95h-78zM100.5 28.5q-50.5 43.5 -50.5 119.5q0 79 49 121.5t142 42.5q104 0 179 -43v36q0 65 -37 96.5t-117 31.5q-85 0 -157 -32v65q30 13 76 21t88 8q114 0 169 -51.5t55 -142.5v-301h-72v62
q-63 -77 -187 -77q-87 0 -137.5 43.5zM354.5 69.5q43.5 21.5 65.5 60.5v77q-39 23 -77.5 33.5t-86.5 10.5q-68 0 -98.5 -25.5t-30.5 -77.5q0 -100 130 -100q54 0 97.5 21.5z" />
    <glyph glyph-name="uni1EA8" unicode="&#x1ea8;" horiz-adv-x="731" 
d="M458 888q62 0 62 36q0 33 -44 33q-29 0 -45 -8v36q25 9 60 9q41 0 62.5 -17.5t21.5 -48.5q0 -25 -18 -43t-49 -22v-25h-50v50zM333 880h67l137 -138h-79l-92 95l-92 -95h-78zM329 699h73l279 -699h-80l-75 187h-322l-74 -187h-80zM504 253l-139 356l-138 -356h277z" />
    <glyph glyph-name="uni1EA9" unicode="&#x1ea9;" horiz-adv-x="562" 
d="M380 681q62 0 62 36q0 33 -44 33q-29 0 -45 -8v36q25 9 60 9q41 0 62.5 -17.5t21.5 -48.5q0 -25 -18 -43t-49 -22v-25h-50v50zM255 673h67l137 -138h-79l-92 95l-92 -95h-78zM100.5 28.5q-50.5 43.5 -50.5 119.5q0 79 49 121.5t142 42.5q104 0 179 -43v36q0 65 -37 96.5
t-117 31.5q-85 0 -157 -32v65q30 13 76 21t88 8q114 0 169 -51.5t55 -142.5v-301h-72v62q-63 -77 -187 -77q-87 0 -137.5 43.5zM354.5 69.5q43.5 21.5 65.5 60.5v77q-39 23 -77.5 33.5t-86.5 10.5q-68 0 -98.5 -25.5t-30.5 -77.5q0 -100 130 -100q54 0 97.5 21.5z" />
    <glyph glyph-name="uni1EAA" unicode="&#x1eaa;" horiz-adv-x="731" 
d="M208 943q25 37 83 37q20 0 38 -5.5t44 -16.5q23 -11 40.5 -16.5t36.5 -5.5q51 0 83 46v-61q-23 -36 -83 -36q-22 0 -41.5 6t-43.5 17q-25 10 -40.5 15t-33.5 5q-24 0 -44.5 -10t-38.5 -36v61zM332 880h67l137 -138h-79l-92 95l-92 -95h-78zM329 699h73l279 -699h-80
l-75 187h-322l-74 -187h-80zM504 253l-139 356l-138 -356h277z" />
    <glyph glyph-name="uni1EAB" unicode="&#x1eab;" horiz-adv-x="562" 
d="M135 736q25 37 83 37q20 0 38 -5.5t44 -16.5q23 -11 40.5 -16.5t36.5 -5.5q51 0 83 46v-61q-23 -36 -83 -36q-22 0 -41.5 6t-43.5 17q-25 10 -40.5 15t-33.5 5q-24 0 -44.5 -10t-38.5 -36v61zM259 673h67l137 -138h-79l-92 95l-92 -95h-78zM100.5 28.5
q-50.5 43.5 -50.5 119.5q0 79 49 121.5t142 42.5q104 0 179 -43v36q0 65 -37 96.5t-117 31.5q-85 0 -157 -32v65q30 13 76 21t88 8q114 0 169 -51.5t55 -142.5v-301h-72v62q-63 -77 -187 -77q-87 0 -137.5 43.5zM354.5 69.5q43.5 21.5 65.5 60.5v77q-39 23 -77.5 33.5
t-86.5 10.5q-68 0 -98.5 -25.5t-30.5 -77.5q0 -100 130 -100q54 0 97.5 21.5z" />
    <glyph glyph-name="uni1EAC" unicode="&#x1eac;" horiz-adv-x="731" 
d="M332 903h67l137 -161h-78l-92 114l-92 -114h-79zM329 699h73l279 -699h-80l-75 187h-322l-74 -187h-80zM504 253l-139 356l-138 -356h277zM331 -137.5q-15 14.5 -15 34.5t15 34.5t35 14.5t34.5 -14.5t14.5 -34.5t-14.5 -34.5t-34.5 -14.5t-35 14.5z" />
    <glyph glyph-name="uni1EAD" unicode="&#x1ead;" horiz-adv-x="562" 
d="M256 696h67l137 -161h-78l-92 114l-92 -114h-79zM100.5 28.5q-50.5 43.5 -50.5 119.5q0 79 49 121.5t142 42.5q104 0 179 -43v36q0 65 -37 96.5t-117 31.5q-85 0 -157 -32v65q30 13 76 21t88 8q114 0 169 -51.5t55 -142.5v-301h-72v62q-63 -77 -187 -77
q-87 0 -137.5 43.5zM354.5 69.5q43.5 21.5 65.5 60.5v77q-39 23 -77.5 33.5t-86.5 10.5q-68 0 -98.5 -25.5t-30.5 -77.5q0 -100 130 -100q54 0 97.5 21.5zM249 -137.5q-15 14.5 -15 34.5t15 34.5t35 14.5t34.5 -14.5t14.5 -34.5t-14.5 -34.5t-34.5 -14.5t-35 14.5z" />
    <glyph glyph-name="uni1EAE" unicode="&#x1eae;" horiz-adv-x="731" 
d="M383 978h64l-63 -123h-54zM265.5 778q-37.5 36 -37.5 92h58q0 -35 21 -55t58 -20t58 20t21 55h58q0 -56 -37.5 -92t-99.5 -36t-99.5 36zM329 699h73l279 -699h-80l-75 187h-322l-74 -187h-80zM504 253l-139 356l-138 -356h277z" />
    <glyph glyph-name="uni1EAF" unicode="&#x1eaf;" horiz-adv-x="562" 
d="M308 771h64l-63 -123h-54zM190.5 571q-37.5 36 -37.5 92h58q0 -35 21 -55t58 -20t58 20t21 55h58q0 -56 -37.5 -92t-99.5 -36t-99.5 36zM100.5 28.5q-50.5 43.5 -50.5 119.5q0 79 49 121.5t142 42.5q104 0 179 -43v36q0 65 -37 96.5t-117 31.5q-85 0 -157 -32v65
q30 13 76 21t88 8q114 0 169 -51.5t55 -142.5v-301h-72v62q-63 -77 -187 -77q-87 0 -137.5 43.5zM354.5 69.5q43.5 21.5 65.5 60.5v77q-39 23 -77.5 33.5t-86.5 10.5q-68 0 -98.5 -25.5t-30.5 -77.5q0 -100 130 -100q54 0 97.5 21.5z" />
    <glyph glyph-name="uni1EB0" unicode="&#x1eb0;" horiz-adv-x="731" 
d="M283 978h65l53 -123h-54zM265.5 778q-37.5 36 -37.5 92h58q0 -35 21 -55t58 -20t58 20t21 55h58q0 -56 -37.5 -92t-99.5 -36t-99.5 36zM329 699h73l279 -699h-80l-75 187h-322l-74 -187h-80zM504 253l-139 356l-138 -356h277z" />
    <glyph glyph-name="uni1EB1" unicode="&#x1eb1;" horiz-adv-x="562" 
d="M212 771h65l53 -123h-54zM194.5 571q-37.5 36 -37.5 92h58q0 -35 21 -55t58 -20t58 20t21 55h58q0 -56 -37.5 -92t-99.5 -36t-99.5 36zM100.5 28.5q-50.5 43.5 -50.5 119.5q0 79 49 121.5t142 42.5q104 0 179 -43v36q0 65 -37 96.5t-117 31.5q-85 0 -157 -32v65
q30 13 76 21t88 8q114 0 169 -51.5t55 -142.5v-301h-72v62q-63 -77 -187 -77q-87 0 -137.5 43.5zM354.5 69.5q43.5 21.5 65.5 60.5v77q-39 23 -77.5 33.5t-86.5 10.5q-68 0 -98.5 -25.5t-30.5 -77.5q0 -100 130 -100q54 0 97.5 21.5z" />
    <glyph glyph-name="uni1EB2" unicode="&#x1eb2;" horiz-adv-x="731" 
d="M337 892q62 0 62 36q0 33 -44 33q-29 0 -45 -8v36q25 9 60 9q41 0 62.5 -17.5t21.5 -48.5q0 -25 -18 -43t-49 -22v-25h-50v50zM265.5 778q-37.5 36 -37.5 92h57q0 -35 21.5 -55.5t58.5 -20.5t58.5 20.5t21.5 55.5h57q0 -56 -37.5 -92t-99.5 -36t-99.5 36zM329 699h73
l279 -699h-80l-75 187h-322l-74 -187h-80zM504 253l-139 356l-138 -356h277z" />
    <glyph glyph-name="uni1EB3" unicode="&#x1eb3;" horiz-adv-x="562" 
d="M262 685q62 0 62 36q0 33 -44 33q-29 0 -45 -8v36q25 9 60 9q41 0 62.5 -17.5t21.5 -48.5q0 -25 -18 -43t-49 -22v-25h-50v50zM190.5 571q-37.5 36 -37.5 92h57q0 -35 21.5 -55.5t58.5 -20.5t58.5 20.5t21.5 55.5h57q0 -56 -37.5 -92t-99.5 -36t-99.5 36zM100.5 28.5
q-50.5 43.5 -50.5 119.5q0 79 49 121.5t142 42.5q104 0 179 -43v36q0 65 -37 96.5t-117 31.5q-85 0 -157 -32v65q30 13 76 21t88 8q114 0 169 -51.5t55 -142.5v-301h-72v62q-63 -77 -187 -77q-87 0 -137.5 43.5zM354.5 69.5q43.5 21.5 65.5 60.5v77q-39 23 -77.5 33.5
t-86.5 10.5q-68 0 -98.5 -25.5t-30.5 -77.5q0 -100 130 -100q54 0 97.5 21.5z" />
    <glyph glyph-name="uni1EB4" unicode="&#x1eb4;" horiz-adv-x="731" 
d="M203 947q25 37 83 37q20 0 38 -5.5t44 -16.5q23 -11 40.5 -16.5t36.5 -5.5q51 0 83 46v-61q-23 -36 -83 -36q-22 0 -41.5 6t-43.5 17q-25 10 -40.5 15t-33.5 5q-24 0 -44.5 -10t-38.5 -36v61zM271.5 778q-37.5 36 -37.5 92h57q0 -35 21.5 -55.5t58.5 -20.5t58.5 20.5
t21.5 55.5h57q0 -56 -37.5 -92t-99.5 -36t-99.5 36zM329 699h73l279 -699h-80l-75 187h-322l-74 -187h-80zM504 253l-139 356l-138 -356h277z" />
    <glyph glyph-name="uni1EB5" unicode="&#x1eb5;" horiz-adv-x="562" 
d="M135 740q25 37 83 37q20 0 38 -5.5t44 -16.5q23 -11 40.5 -16.5t36.5 -5.5q51 0 83 46v-61q-23 -36 -83 -36q-22 0 -41.5 6t-43.5 17q-25 10 -40.5 15t-33.5 5q-24 0 -44.5 -10t-38.5 -36v61zM203.5 571q-37.5 36 -37.5 92h57q0 -35 21.5 -55.5t58.5 -20.5t58.5 20.5
t21.5 55.5h57q0 -56 -37.5 -92t-99.5 -36t-99.5 36zM100.5 28.5q-50.5 43.5 -50.5 119.5q0 79 49 121.5t142 42.5q104 0 179 -43v36q0 65 -37 96.5t-117 31.5q-85 0 -157 -32v65q30 13 76 21t88 8q114 0 169 -51.5t55 -142.5v-301h-72v62q-63 -77 -187 -77
q-87 0 -137.5 43.5zM354.5 69.5q43.5 21.5 65.5 60.5v77q-39 23 -77.5 33.5t-86.5 10.5q-68 0 -98.5 -25.5t-30.5 -77.5q0 -100 130 -100q54 0 97.5 21.5z" />
    <glyph glyph-name="uni1EB6" unicode="&#x1eb6;" horiz-adv-x="731" 
d="M264 778.5q-38 36.5 -38 93.5h60q0 -35 21.5 -55.5t58.5 -20.5t58.5 20.5t21.5 55.5h59q0 -57 -38 -93.5t-101 -36.5q-64 0 -102 36.5zM329 699h73l279 -699h-80l-75 187h-322l-74 -187h-80zM504 253l-139 356l-138 -356h277zM331 -137.5q-15 14.5 -15 34.5t15 34.5
t35 14.5t34.5 -14.5t14.5 -34.5t-14.5 -34.5t-34.5 -14.5t-35 14.5z" />
    <glyph glyph-name="uni1EB7" unicode="&#x1eb7;" horiz-adv-x="562" 
d="M181 571.5q-38 36.5 -38 93.5h60q0 -35 21.5 -55.5t58.5 -20.5t58.5 20.5t21.5 55.5h59q0 -57 -38 -93.5t-101 -36.5q-64 0 -102 36.5zM100.5 28.5q-50.5 43.5 -50.5 119.5q0 79 49 121.5t142 42.5q104 0 179 -43v36q0 65 -37 96.5t-117 31.5q-85 0 -157 -32v65
q30 13 76 21t88 8q114 0 169 -51.5t55 -142.5v-301h-72v62q-63 -77 -187 -77q-87 0 -137.5 43.5zM354.5 69.5q43.5 21.5 65.5 60.5v77q-39 23 -77.5 33.5t-86.5 10.5q-68 0 -98.5 -25.5t-30.5 -77.5q0 -100 130 -100q54 0 97.5 21.5zM249 -137.5q-15 14.5 -15 34.5t15 34.5
t35 14.5t34.5 -14.5t14.5 -34.5t-14.5 -34.5t-34.5 -14.5t-35 14.5z" />
    <glyph glyph-name="uni1EB8" unicode="&#x1eb8;" horiz-adv-x="570" 
d="M70 699h450v-66h-372v-250h279v-66h-279v-251h372v-66h-450v699zM244 -137.5q-15 14.5 -15 34.5t15 34.5t35 14.5t34.5 -14.5t14.5 -34.5t-14.5 -34.5t-34.5 -14.5t-35 14.5z" />
    <glyph glyph-name="uni1EB9" unicode="&#x1eb9;" horiz-adv-x="608" 
d="M123.5 52q-73.5 67 -73.5 187q0 118 66 187t188 69q82 0 139 -31.5t86 -86.5t29 -125v-42h-436q4 -82 60.5 -123t153.5 -41q47 0 92.5 8.5t81.5 23.5v-65q-30 -12 -81.5 -20t-100.5 -8q-131 0 -204.5 67zM486 265q-2 78 -48 123t-135 45q-87 0 -133 -46.5t-48 -121.5h364
zM277 -137.5q-15 14.5 -15 34.5t15 34.5t35 14.5t34.5 -14.5t14.5 -34.5t-14.5 -34.5t-34.5 -14.5t-35 14.5z" />
    <glyph glyph-name="uni1EBA" unicode="&#x1eba;" horiz-adv-x="570" 
d="M243 811q48 0 70.5 13.5t22.5 44.5q0 26 -17 38t-53 12q-14 0 -33 -3t-27 -7v45q13 5 34.5 8t41.5 3q60 0 91 -25t31 -68q0 -37 -24.5 -63.5t-69.5 -30.5v-35h-67v68zM70 699h450v-66h-372v-250h279v-66h-279v-251h372v-66h-450v699z" />
    <glyph glyph-name="uni1EBB" unicode="&#x1ebb;" horiz-adv-x="608" 
d="M275 618q48 0 70.5 13.5t22.5 44.5q0 26 -17 38t-53 12q-14 0 -33 -3t-27 -7v45q13 5 34.5 8t41.5 3q60 0 91 -25t31 -68q0 -37 -24.5 -63.5t-69.5 -30.5v-35h-67v68zM123.5 52q-73.5 67 -73.5 187q0 118 66 187t188 69q82 0 139 -31.5t86 -86.5t29 -125v-42h-436
q4 -82 60.5 -123t153.5 -41q47 0 92.5 8.5t81.5 23.5v-65q-30 -12 -81.5 -20t-100.5 -8q-131 0 -204.5 67zM486 265q-2 78 -48 123t-135 45q-87 0 -133 -46.5t-48 -121.5h364z" />
    <glyph glyph-name="uni1EBC" unicode="&#x1ebc;" horiz-adv-x="570" 
d="M98 839q28 43 95 43q22 0 42 -6t51 -19q26 -12 46 -18.5t42 -6.5q29 0 52.5 12t42.5 40v-69q-28 -42 -95 -42q-25 0 -47 6.5t-50 19.5q-28 12 -45.5 18t-38.5 6q-28 0 -51 -12t-44 -41v69zM70 699h450v-66h-372v-250h279v-66h-279v-251h372v-66h-450v699z" />
    <glyph glyph-name="uni1EBD" unicode="&#x1ebd;" horiz-adv-x="608" 
d="M126 626q28 43 95 43q22 0 42 -6t51 -19q26 -12 46 -18.5t42 -6.5q29 0 52.5 12t42.5 40v-69q-28 -42 -95 -42q-25 0 -47 6.5t-50 19.5q-28 12 -45.5 18t-38.5 6q-28 0 -51 -12t-44 -41v69zM123.5 52q-73.5 67 -73.5 187q0 118 66 187t188 69q82 0 139 -31.5t86 -86.5
t29 -125v-42h-436q4 -82 60.5 -123t153.5 -41q47 0 92.5 8.5t81.5 23.5v-65q-30 -12 -81.5 -20t-100.5 -8q-131 0 -204.5 67zM486 265q-2 78 -48 123t-135 45q-87 0 -133 -46.5t-48 -121.5h364z" />
    <glyph glyph-name="uni1EBE" unicode="&#x1ebe;" horiz-adv-x="570" 
d="M431 965h64l-81 -120h-54zM240 880h67l137 -138h-78l-92 95l-92 -95h-79zM70 699h450v-66h-372v-250h279v-66h-279v-251h372v-66h-450v699z" />
    <glyph glyph-name="uni1EBF" unicode="&#x1ebf;" horiz-adv-x="608" 
d="M474 767h64l-81 -120h-54zM283 682h67l137 -138h-78l-92 95l-92 -95h-79zM123.5 52q-73.5 67 -73.5 187q0 118 66 187t188 69q82 0 139 -31.5t86 -86.5t29 -125v-42h-436q4 -82 60.5 -123t153.5 -41q47 0 92.5 8.5t81.5 23.5v-65q-30 -12 -81.5 -20t-100.5 -8
q-131 0 -204.5 67zM486 265q-2 78 -48 123t-135 45q-87 0 -133 -46.5t-48 -121.5h364z" />
    <glyph glyph-name="uni1EC0" unicode="&#x1ec0;" horiz-adv-x="609" 
d="M70 965h64l71 -120h-54zM258 880h67l137 -138h-79l-92 95l-92 -95h-78zM109 699h450v-66h-372v-250h279v-66h-279v-251h372v-66h-450v699z" />
    <glyph glyph-name="uni1EC1" unicode="&#x1ec1;" horiz-adv-x="608" 
d="M55 767h64l71 -120h-54zM243 682h67l137 -138h-79l-92 95l-92 -95h-78zM123.5 52q-73.5 67 -73.5 187q0 118 66 187t188 69q82 0 139 -31.5t86 -86.5t29 -125v-42h-436q4 -82 60.5 -123t153.5 -41q47 0 92.5 8.5t81.5 23.5v-65q-30 -12 -81.5 -20t-100.5 -8
q-131 0 -204.5 67zM486 265q-2 78 -48 123t-135 45q-87 0 -133 -46.5t-48 -121.5h364z" />
    <glyph glyph-name="uni1EC2" unicode="&#x1ec2;" horiz-adv-x="572" 
d="M405 888q62 0 62 36q0 33 -44 33q-29 0 -45 -8v36q25 9 60 9q41 0 62.5 -17.5t21.5 -48.5q0 -25 -18 -43t-49 -22v-25h-50v50zM280 880h67l137 -138h-79l-92 95l-92 -95h-78zM70 699h450v-66h-372v-250h279v-66h-279v-251h372v-66h-450v699z" />
    <glyph glyph-name="uni1EC3" unicode="&#x1ec3;" horiz-adv-x="608" 
d="M426 690q62 0 62 36q0 33 -44 33q-29 0 -45 -8v36q25 9 60 9q41 0 62.5 -17.5t21.5 -48.5q0 -25 -18 -43t-49 -22v-25h-50v50zM301 682h67l137 -138h-79l-92 95l-92 -95h-78zM123.5 52q-73.5 67 -73.5 187q0 118 66 187t188 69q82 0 139 -31.5t86 -86.5t29 -125v-42h-436
q4 -82 60.5 -123t153.5 -41q47 0 92.5 8.5t81.5 23.5v-65q-30 -12 -81.5 -20t-100.5 -8q-131 0 -204.5 67zM486 265q-2 78 -48 123t-135 45q-87 0 -133 -46.5t-48 -121.5h364z" />
    <glyph glyph-name="uni1EC4" unicode="&#x1ec4;" horiz-adv-x="570" 
d="M158 943q25 37 83 37q20 0 38 -5.5t44 -16.5q23 -11 40.5 -16.5t36.5 -5.5q51 0 83 46v-61q-23 -36 -83 -36q-22 0 -41.5 6t-43.5 17q-25 10 -40.5 15t-33.5 5q-24 0 -44.5 -10t-38.5 -36v61zM282 880h67l137 -138h-79l-92 95l-92 -95h-78zM70 699h450v-66h-372v-250h279
v-66h-279v-251h372v-66h-450v699z" />
    <glyph glyph-name="uni1EC5" unicode="&#x1ec5;" horiz-adv-x="608" 
d="M171 745q25 37 83 37q20 0 38 -5.5t44 -16.5q23 -11 40.5 -16.5t36.5 -5.5q51 0 83 46v-61q-23 -36 -83 -36q-22 0 -41.5 6t-43.5 17q-25 10 -40.5 15t-33.5 5q-24 0 -44.5 -10t-38.5 -36v61zM295 682h67l137 -138h-79l-92 95l-92 -95h-78zM123.5 52q-73.5 67 -73.5 187
q0 118 66 187t188 69q82 0 139 -31.5t86 -86.5t29 -125v-42h-436q4 -82 60.5 -123t153.5 -41q47 0 92.5 8.5t81.5 23.5v-65q-30 -12 -81.5 -20t-100.5 -8q-131 0 -204.5 67zM486 265q-2 78 -48 123t-135 45q-87 0 -133 -46.5t-48 -121.5h364z" />
    <glyph glyph-name="uni1EC6" unicode="&#x1ec6;" horiz-adv-x="570" 
d="M243 925h67l137 -161h-78l-92 114l-92 -114h-79zM70 699h450v-66h-372v-250h279v-66h-279v-251h372v-66h-450v699zM242 -137.5q-15 14.5 -15 34.5t15 34.5t35 14.5t34.5 -14.5t14.5 -34.5t-14.5 -34.5t-34.5 -14.5t-35 14.5z" />
    <glyph glyph-name="uni1EC7" unicode="&#x1ec7;" horiz-adv-x="608" 
d="M275 703h67l137 -161h-78l-92 114l-92 -114h-79zM123.5 52q-73.5 67 -73.5 187q0 118 66 187t188 69q82 0 139 -31.5t86 -86.5t29 -125v-42h-436q4 -82 60.5 -123t153.5 -41q47 0 92.5 8.5t81.5 23.5v-65q-30 -12 -81.5 -20t-100.5 -8q-131 0 -204.5 67zM486 265
q-2 78 -48 123t-135 45q-87 0 -133 -46.5t-48 -121.5h364zM274 -137.5q-15 14.5 -15 34.5t15 34.5t35 14.5t34.5 -14.5t14.5 -34.5t-14.5 -34.5t-34.5 -14.5t-35 14.5z" />
    <glyph glyph-name="uni1EC8" unicode="&#x1ec8;" horiz-adv-x="220" 
d="M76 810q48 0 70.5 13.5t22.5 44.5q0 26 -17 38t-53 12q-14 0 -33 -3t-27 -7v45q13 5 34.5 8t41.5 3q60 0 91 -25t31 -68q0 -37 -24.5 -63.5t-69.5 -30.5v-35h-67v68zM71 699h78v-699h-78v699z" />
    <glyph glyph-name="uni1EC9" unicode="&#x1ec9;" horiz-adv-x="217" 
d="M75 603q48 0 70.5 13.5t22.5 44.5q0 26 -17 38t-53 12q-14 0 -33 -3t-27 -7v45q13 5 34.5 8t41.5 3q60 0 91 -25t31 -68q0 -37 -24.5 -63.5t-69.5 -30.5v-35h-67v68zM70 480h77v-480h-77v480z" />
    <glyph glyph-name="uni1ECA" unicode="&#x1eca;" horiz-adv-x="220" 
d="M71 699h78v-699h-78v699zM76 -137.5q-15 14.5 -15 34.5t15 34.5t35 14.5t34.5 -14.5t14.5 -34.5t-14.5 -34.5t-34.5 -14.5t-35 14.5z" />
    <glyph glyph-name="uni1ECB" unicode="&#x1ecb;" horiz-adv-x="239" 
d="M85 598q-14 14 -14 34t14 34t34 14t34.5 -14t14.5 -34t-14.5 -34t-34.5 -14t-34 14zM81 480h77v-480h-77v480zM85 -137.5q-15 14.5 -15 34.5t15 34.5t35 14.5t34.5 -14.5t14.5 -34.5t-14.5 -34.5t-34.5 -14.5t-35 14.5z" />
    <glyph glyph-name="uni1ECC" unicode="&#x1ecc;" horiz-adv-x="832" 
d="M229.5 30.5q-83.5 45.5 -131.5 128.5t-48 190t48 190t131 129t187 46t187 -46t131 -129t48 -190t-48 -190t-131.5 -128.5t-186.5 -45.5t-186.5 45.5zM562 91q66 36 104 102.5t38 155.5q0 88 -37.5 154.5t-103 103t-145.5 36.5q-81 0 -147 -36t-104.5 -103t-38.5 -155
q0 -89 38 -155.5t104 -102.5t146 -36t146 36zM382 -137.5q-15 14.5 -15 34.5t15 34.5t35 14.5t34.5 -14.5t14.5 -34.5t-14.5 -34.5t-34.5 -14.5t-35 14.5z" />
    <glyph glyph-name="uni1ECD" unicode="&#x1ecd;" horiz-adv-x="632" 
d="M177.5 16q-60.5 31 -94 88.5t-33.5 134.5q0 76 34 134t94.5 90t137.5 32t137.5 -32t94.5 -90t34 -134q0 -77 -33.5 -134.5t-94 -88.5t-138.5 -31t-138.5 31zM453.5 98.5q51.5 52.5 51.5 140.5q0 89 -51.5 141.5t-137.5 52.5t-137.5 -52.5t-51.5 -141.5q0 -88 51.5 -140.5
t137.5 -52.5t137.5 52.5zM282 -137.5q-15 14.5 -15 34.5t15 34.5t35 14.5t34.5 -14.5t14.5 -34.5t-14.5 -34.5t-34.5 -14.5t-35 14.5z" />
    <glyph glyph-name="uni1ECE" unicode="&#x1ece;" horiz-adv-x="832" 
d="M384 810q48 0 70.5 13.5t22.5 44.5q0 26 -17 38t-53 12q-14 0 -33 -3t-27 -7v45q13 5 34.5 8t41.5 3q60 0 91 -25t31 -68q0 -37 -24.5 -63.5t-69.5 -30.5v-35h-67v68zM229.5 30.5q-83.5 45.5 -131.5 128.5t-48 190t48 190t131 129t187 46t187 -46t131 -129t48 -190
t-48 -190t-131.5 -128.5t-186.5 -45.5t-186.5 45.5zM562 91q66 36 104 102.5t38 155.5q0 88 -37.5 154.5t-103 103t-145.5 36.5q-81 0 -147 -36t-104.5 -103t-38.5 -155q0 -89 38 -155.5t104 -102.5t146 -36t146 36z" />
    <glyph glyph-name="uni1ECF" unicode="&#x1ecf;" horiz-adv-x="632" 
d="M281 603q48 0 70.5 13.5t22.5 44.5q0 26 -17 38t-53 12q-14 0 -33 -3t-27 -7v45q13 5 34.5 8t41.5 3q60 0 91 -25t31 -68q0 -37 -24.5 -63.5t-69.5 -30.5v-35h-67v68zM177.5 16q-60.5 31 -94 88.5t-33.5 134.5q0 76 34 134t94.5 90t137.5 32t137.5 -32t94.5 -90t34 -134
q0 -77 -33.5 -134.5t-94 -88.5t-138.5 -31t-138.5 31zM453.5 98.5q51.5 52.5 51.5 140.5q0 89 -51.5 141.5t-137.5 52.5t-137.5 -52.5t-51.5 -141.5q0 -88 51.5 -140.5t137.5 -52.5t137.5 52.5z" />
    <glyph glyph-name="uni1ED0" unicode="&#x1ed0;" horiz-adv-x="832" 
d="M582 965h64l-81 -120h-54zM391 880h67l137 -138h-78l-92 95l-92 -95h-79zM229.5 30.5q-83.5 45.5 -131.5 128.5t-48 190t48 190t131 129t187 46t187 -46t131 -129t48 -190t-48 -190t-131.5 -128.5t-186.5 -45.5t-186.5 45.5zM562 91q66 36 104 102.5t38 155.5
q0 88 -37.5 154.5t-103 103t-145.5 36.5q-81 0 -147 -36t-104.5 -103t-38.5 -155q0 -89 38 -155.5t104 -102.5t146 -36t146 36z" />
    <glyph glyph-name="uni1ED1" unicode="&#x1ed1;" horiz-adv-x="632" 
d="M479 758h64l-81 -120h-54zM288 673h67l137 -138h-78l-92 95l-92 -95h-79zM177.5 16q-60.5 31 -94 88.5t-33.5 134.5q0 76 34 134t94.5 90t137.5 32t137.5 -32t94.5 -90t34 -134q0 -77 -33.5 -134.5t-94 -88.5t-138.5 -31t-138.5 31zM453.5 98.5q51.5 52.5 51.5 140.5
q0 89 -51.5 141.5t-137.5 52.5t-137.5 -52.5t-51.5 -141.5q0 -88 51.5 -140.5t137.5 -52.5t137.5 52.5z" />
    <glyph glyph-name="uni1ED2" unicode="&#x1ed2;" horiz-adv-x="832" 
d="M179 965h64l71 -120h-54zM367 880h67l137 -138h-79l-92 95l-92 -95h-78zM230.5 30.5q-83.5 45.5 -131.5 128.5t-48 190t48 190t131 129t187 46t187 -46t131 -129t48 -190t-48 -190t-131.5 -128.5t-186.5 -45.5t-186.5 45.5zM563 91q66 36 104 102.5t38 155.5
q0 88 -37.5 154.5t-103 103t-145.5 36.5q-81 0 -147 -36t-104.5 -103t-38.5 -155q0 -89 38 -155.5t104 -102.5t146 -36t146 36z" />
    <glyph glyph-name="uni1ED3" unicode="&#x1ed3;" horiz-adv-x="632" 
d="M87 758h64l71 -120h-54zM275 673h67l137 -138h-79l-92 95l-92 -95h-78zM177.5 16q-60.5 31 -94 88.5t-33.5 134.5q0 76 34 134t94.5 90t137.5 32t137.5 -32t94.5 -90t34 -134q0 -77 -33.5 -134.5t-94 -88.5t-138.5 -31t-138.5 31zM453.5 98.5q51.5 52.5 51.5 140.5
q0 89 -51.5 141.5t-137.5 52.5t-137.5 -52.5t-51.5 -141.5q0 -88 51.5 -140.5t137.5 -52.5t137.5 52.5z" />
    <glyph glyph-name="uni1ED4" unicode="&#x1ed4;" horiz-adv-x="832" 
d="M504 888q62 0 62 36q0 33 -44 33q-29 0 -45 -8v36q25 9 60 9q41 0 62.5 -17.5t21.5 -48.5q0 -25 -18 -43t-49 -22v-25h-50v50zM379 880h67l137 -138h-79l-92 95l-92 -95h-78zM229.5 30.5q-83.5 45.5 -131.5 128.5t-48 190t48 190t131 129t187 46t187 -46t131 -129
t48 -190t-48 -190t-131.5 -128.5t-186.5 -45.5t-186.5 45.5zM562 91q66 36 104 102.5t38 155.5q0 88 -37.5 154.5t-103 103t-145.5 36.5q-81 0 -147 -36t-104.5 -103t-38.5 -155q0 -89 38 -155.5t104 -102.5t146 -36t146 36z" />
    <glyph glyph-name="uni1ED5" unicode="&#x1ed5;" horiz-adv-x="632" 
d="M413 681q62 0 62 36q0 33 -44 33q-29 0 -45 -8v36q25 9 60 9q41 0 62.5 -17.5t21.5 -48.5q0 -25 -18 -43t-49 -22v-25h-50v50zM288 673h67l137 -138h-79l-92 95l-92 -95h-78zM177.5 16q-60.5 31 -94 88.5t-33.5 134.5q0 76 34 134t94.5 90t137.5 32t137.5 -32t94.5 -90
t34 -134q0 -77 -33.5 -134.5t-94 -88.5t-138.5 -31t-138.5 31zM453.5 98.5q51.5 52.5 51.5 140.5q0 89 -51.5 141.5t-137.5 52.5t-137.5 -52.5t-51.5 -141.5q0 -88 51.5 -140.5t137.5 -52.5t137.5 52.5z" />
    <glyph glyph-name="uni1ED6" unicode="&#x1ed6;" horiz-adv-x="832" 
d="M254 947q25 37 83 37q20 0 38 -5.5t44 -16.5q23 -11 40.5 -16.5t36.5 -5.5q51 0 83 46v-61q-23 -36 -83 -36q-22 0 -41.5 6t-43.5 17q-25 10 -40.5 15t-33.5 5q-24 0 -44.5 -10t-38.5 -36v61zM322.5 778q-37.5 36 -37.5 92h57q0 -35 21.5 -55.5t58.5 -20.5t58.5 20.5
t21.5 55.5h57q0 -56 -37.5 -92t-99.5 -36t-99.5 36zM229.5 30.5q-83.5 45.5 -131.5 128.5t-48 190t48 190t131 129t187 46t187 -46t131 -129t48 -190t-48 -190t-131.5 -128.5t-186.5 -45.5t-186.5 45.5zM562 91q66 36 104 102.5t38 155.5q0 88 -37.5 154.5t-103 103
t-145.5 36.5q-81 0 -147 -36t-104.5 -103t-38.5 -155q0 -89 38 -155.5t104 -102.5t146 -36t146 36z" />
    <glyph glyph-name="uni1ED7" unicode="&#x1ed7;" horiz-adv-x="632" 
d="M154 740q25 37 83 37q20 0 38 -5.5t44 -16.5q23 -11 40.5 -16.5t36.5 -5.5q51 0 83 46v-61q-23 -36 -83 -36q-22 0 -41.5 6t-43.5 17q-25 10 -40.5 15t-33.5 5q-24 0 -44.5 -10t-38.5 -36v61zM222.5 571q-37.5 36 -37.5 92h57q0 -35 21.5 -55.5t58.5 -20.5t58.5 20.5
t21.5 55.5h57q0 -56 -37.5 -92t-99.5 -36t-99.5 36zM177.5 16q-60.5 31 -94 88.5t-33.5 134.5q0 76 34 134t94.5 90t137.5 32t137.5 -32t94.5 -90t34 -134q0 -77 -33.5 -134.5t-94 -88.5t-138.5 -31t-138.5 31zM453.5 98.5q51.5 52.5 51.5 140.5q0 89 -51.5 141.5
t-137.5 52.5t-137.5 -52.5t-51.5 -141.5q0 -88 51.5 -140.5t137.5 -52.5t137.5 52.5z" />
    <glyph glyph-name="uni1ED8" unicode="&#x1ed8;" horiz-adv-x="832" 
d="M382 903h67l137 -161h-78l-92 114l-92 -114h-79zM229.5 30.5q-83.5 45.5 -131.5 128.5t-48 190t48 190t131 129t187 46t187 -46t131 -129t48 -190t-48 -190t-131.5 -128.5t-186.5 -45.5t-186.5 45.5zM562 91q66 36 104 102.5t38 155.5q0 88 -37.5 154.5t-103 103
t-145.5 36.5q-81 0 -147 -36t-104.5 -103t-38.5 -155q0 -89 38 -155.5t104 -102.5t146 -36t146 36zM382 -137.5q-15 14.5 -15 34.5t15 34.5t35 14.5t34.5 -14.5t14.5 -34.5t-14.5 -34.5t-34.5 -14.5t-35 14.5z" />
    <glyph glyph-name="uni1ED9" unicode="&#x1ed9;" horiz-adv-x="632" 
d="M282 696h67l137 -161h-78l-92 114l-92 -114h-79zM177.5 16q-60.5 31 -94 88.5t-33.5 134.5q0 76 34 134t94.5 90t137.5 32t137.5 -32t94.5 -90t34 -134q0 -77 -33.5 -134.5t-94 -88.5t-138.5 -31t-138.5 31zM453.5 98.5q51.5 52.5 51.5 140.5q0 89 -51.5 141.5
t-137.5 52.5t-137.5 -52.5t-51.5 -141.5q0 -88 51.5 -140.5t137.5 -52.5t137.5 52.5zM282 -137.5q-15 14.5 -15 34.5t15 34.5t35 14.5t34.5 -14.5t14.5 -34.5t-14.5 -34.5t-34.5 -14.5t-35 14.5z" />
    <glyph glyph-name="uni1EDA" unicode="&#x1eda;" horiz-adv-x="853" 
d="M455 912h81l-80 -170h-69zM229.5 30.5q-83.5 45.5 -131.5 128.5t-48 190t48 190t131 129t187 46q74 0 138 -23.5t113 -67.5q45 1 67.5 23.5t22.5 64.5v36h71v-40q0 -50 -30.5 -89t-80.5 -52q65 -92 65 -217q0 -107 -48 -190t-131.5 -128.5t-186.5 -45.5t-186.5 45.5z
M562 91q66 36 104 102.5t38 155.5q0 88 -37.5 154.5t-103 103t-145.5 36.5q-81 0 -147 -36t-104.5 -103t-38.5 -155q0 -89 38 -155.5t104 -102.5t146 -36t146 36z" />
    <glyph glyph-name="uni1EDB" unicode="&#x1edb;" horiz-adv-x="665" 
d="M340 705h81l-80 -170h-69zM177.5 16q-60.5 31 -94 88.5t-33.5 134.5q0 76 34 134t94.5 90t137.5 32q54 0 100 -16t81 -45q38 6 59 29.5t21 58.5v36h63v-40q0 -46 -27.5 -81.5t-73.5 -49.5q43 -64 43 -148q0 -77 -33.5 -134.5t-94 -88.5t-138.5 -31t-138.5 31zM453.5 98.5
q51.5 52.5 51.5 140.5q0 89 -51.5 141.5t-137.5 52.5t-137.5 -52.5t-51.5 -141.5q0 -88 51.5 -140.5t137.5 -52.5t137.5 52.5z" />
    <glyph glyph-name="uni1EDC" unicode="&#x1edc;" horiz-adv-x="853" 
d="M303 912h81l68 -170h-69zM229.5 30.5q-83.5 45.5 -131.5 128.5t-48 190t48 190t131 129t187 46q74 0 138 -23.5t113 -67.5q45 1 67.5 23.5t22.5 64.5v36h71v-40q0 -50 -30.5 -89t-80.5 -52q65 -92 65 -217q0 -107 -48 -190t-131.5 -128.5t-186.5 -45.5t-186.5 45.5z
M562 91q66 36 104 102.5t38 155.5q0 88 -37.5 154.5t-103 103t-145.5 36.5q-81 0 -147 -36t-104.5 -103t-38.5 -155q0 -89 38 -155.5t104 -102.5t146 -36t146 36z" />
    <glyph glyph-name="uni1EDD" unicode="&#x1edd;" horiz-adv-x="665" 
d="M203 705h81l68 -170h-69zM177.5 16q-60.5 31 -94 88.5t-33.5 134.5q0 76 34 134t94.5 90t137.5 32q54 0 100 -16t81 -45q38 6 59 29.5t21 58.5v36h63v-40q0 -46 -27.5 -81.5t-73.5 -49.5q43 -64 43 -148q0 -77 -33.5 -134.5t-94 -88.5t-138.5 -31t-138.5 31zM453.5 98.5
q51.5 52.5 51.5 140.5q0 89 -51.5 141.5t-137.5 52.5t-137.5 -52.5t-51.5 -141.5q0 -88 51.5 -140.5t137.5 -52.5t137.5 52.5z" />
    <glyph glyph-name="uni1EDE" unicode="&#x1ede;" horiz-adv-x="853" 
d="M385 810q48 0 70.5 13.5t22.5 44.5q0 26 -17 38t-53 12q-14 0 -33 -3t-27 -7v45q13 5 34.5 8t41.5 3q60 0 91 -25t31 -68q0 -37 -24.5 -63.5t-69.5 -30.5v-35h-67v68zM229.5 30.5q-83.5 45.5 -131.5 128.5t-48 190t48 190t131 129t187 46q74 0 138 -23.5t113 -67.5
q45 1 67.5 23.5t22.5 64.5v36h71v-40q0 -50 -30.5 -89t-80.5 -52q65 -92 65 -217q0 -107 -48 -190t-131.5 -128.5t-186.5 -45.5t-186.5 45.5zM562 91q66 36 104 102.5t38 155.5q0 88 -37.5 154.5t-103 103t-145.5 36.5q-81 0 -147 -36t-104.5 -103t-38.5 -155
q0 -89 38 -155.5t104 -102.5t146 -36t146 36z" />
    <glyph glyph-name="uni1EDF" unicode="&#x1edf;" horiz-adv-x="665" 
d="M280 603q48 0 70.5 13.5t22.5 44.5q0 26 -17 38t-53 12q-14 0 -33 -3t-27 -7v45q13 5 34.5 8t41.5 3q60 0 91 -25t31 -68q0 -37 -24.5 -63.5t-69.5 -30.5v-35h-67v68zM177.5 16q-60.5 31 -94 88.5t-33.5 134.5q0 76 34 134t94.5 90t137.5 32q54 0 100 -16t81 -45
q38 6 59 29.5t21 58.5v36h63v-40q0 -46 -27.5 -81.5t-73.5 -49.5q43 -64 43 -148q0 -77 -33.5 -134.5t-94 -88.5t-138.5 -31t-138.5 31zM453.5 98.5q51.5 52.5 51.5 140.5q0 89 -51.5 141.5t-137.5 52.5t-137.5 -52.5t-51.5 -141.5q0 -88 51.5 -140.5t137.5 -52.5
t137.5 52.5z" />
    <glyph glyph-name="uni1EE0" unicode="&#x1ee0;" horiz-adv-x="853" 
d="M253 811q28 43 95 43q22 0 42 -6t51 -19q26 -12 46 -18.5t42 -6.5q29 0 52.5 12t42.5 40v-69q-28 -42 -95 -42q-25 0 -47 6.5t-50 19.5q-28 12 -45.5 18t-38.5 6q-28 0 -51 -12t-44 -41v69zM229.5 30.5q-83.5 45.5 -131.5 128.5t-48 190t48 190t131 129t187 46
q74 0 138 -23.5t113 -67.5q45 1 67.5 23.5t22.5 64.5v36h71v-40q0 -50 -30.5 -89t-80.5 -52q65 -92 65 -217q0 -107 -48 -190t-131.5 -128.5t-186.5 -45.5t-186.5 45.5zM562 91q66 36 104 102.5t38 155.5q0 88 -37.5 154.5t-103 103t-145.5 36.5q-81 0 -147 -36t-104.5 -103
t-38.5 -155q0 -89 38 -155.5t104 -102.5t146 -36t146 36z" />
    <glyph glyph-name="uni1EE1" unicode="&#x1ee1;" horiz-adv-x="665" 
d="M132 604q28 43 95 43q22 0 42 -6t51 -19q26 -12 46 -18.5t42 -6.5q29 0 52.5 12t42.5 40v-69q-28 -42 -95 -42q-25 0 -47 6.5t-50 19.5q-28 12 -45.5 18t-38.5 6q-28 0 -51 -12t-44 -41v69zM177.5 16q-60.5 31 -94 88.5t-33.5 134.5q0 76 34 134t94.5 90t137.5 32
q54 0 100 -16t81 -45q38 6 59 29.5t21 58.5v36h63v-40q0 -46 -27.5 -81.5t-73.5 -49.5q43 -64 43 -148q0 -77 -33.5 -134.5t-94 -88.5t-138.5 -31t-138.5 31zM453.5 98.5q51.5 52.5 51.5 140.5q0 89 -51.5 141.5t-137.5 52.5t-137.5 -52.5t-51.5 -141.5q0 -88 51.5 -140.5
t137.5 -52.5t137.5 52.5z" />
    <glyph glyph-name="uni1EE2" unicode="&#x1ee2;" horiz-adv-x="853" 
d="M229.5 30.5q-83.5 45.5 -131.5 128.5t-48 190t48 190t131 129t187 46q74 0 138 -23.5t113 -67.5q45 1 67.5 23.5t22.5 64.5v36h71v-40q0 -50 -30.5 -89t-80.5 -52q65 -92 65 -217q0 -107 -48 -190t-131.5 -128.5t-186.5 -45.5t-186.5 45.5zM562 91q66 36 104 102.5
t38 155.5q0 88 -37.5 154.5t-103 103t-145.5 36.5q-81 0 -147 -36t-104.5 -103t-38.5 -155q0 -89 38 -155.5t104 -102.5t146 -36t146 36zM382 -137.5q-15 14.5 -15 34.5t15 34.5t35 14.5t34.5 -14.5t14.5 -34.5t-14.5 -34.5t-34.5 -14.5t-35 14.5z" />
    <glyph glyph-name="uni1EE3" unicode="&#x1ee3;" horiz-adv-x="665" 
d="M177.5 16q-60.5 31 -94 88.5t-33.5 134.5q0 76 34 134t94.5 90t137.5 32q54 0 100 -16t81 -45q38 6 59 29.5t21 58.5v36h63v-40q0 -46 -27.5 -81.5t-73.5 -49.5q43 -64 43 -148q0 -77 -33.5 -134.5t-94 -88.5t-138.5 -31t-138.5 31zM453.5 98.5q51.5 52.5 51.5 140.5
q0 89 -51.5 141.5t-137.5 52.5t-137.5 -52.5t-51.5 -141.5q0 -88 51.5 -140.5t137.5 -52.5t137.5 52.5zM279 -137.5q-15 14.5 -15 34.5t15 34.5t35 14.5t34.5 -14.5t14.5 -34.5t-14.5 -34.5t-34.5 -14.5t-35 14.5z" />
    <glyph glyph-name="uni1EE4" unicode="&#x1ee4;" horiz-adv-x="688" 
d="M135.5 55q-70.5 70 -70.5 195v449h78v-455q0 -95 53 -142t148 -47t148 47t53 142v455h78v-449q0 -125 -70.5 -195t-208.5 -70t-208.5 70zM310 -137.5q-15 14.5 -15 34.5t15 34.5t35 14.5t34.5 -14.5t14.5 -34.5t-14.5 -34.5t-34.5 -14.5t-35 14.5z" />
    <glyph glyph-name="uni1EE5" unicode="&#x1ee5;" horiz-adv-x="591" 
d="M116.5 37q-51.5 52 -51.5 139v304h77v-308q0 -126 131 -126q55 0 96.5 24t74.5 76v334h77v-480h-75v72q-65 -87 -182 -87q-96 0 -147.5 52zM248 -137.5q-15 14.5 -15 34.5t15 34.5t35 14.5t34.5 -14.5t14.5 -34.5t-14.5 -34.5t-34.5 -14.5t-35 14.5z" />
    <glyph glyph-name="uni1EE6" unicode="&#x1ee6;" horiz-adv-x="688" 
d="M301 810q48 0 70.5 13.5t22.5 44.5q0 26 -17 38t-53 12q-14 0 -33 -3t-27 -7v45q13 5 34.5 8t41.5 3q60 0 91 -25t31 -68q0 -37 -24.5 -63.5t-69.5 -30.5v-35h-67v68zM135.5 55q-70.5 70 -70.5 195v449h78v-455q0 -95 53 -142t148 -47t148 47t53 142v455h78v-449
q0 -125 -70.5 -195t-208.5 -70t-208.5 70z" />
    <glyph glyph-name="uni1EE7" unicode="&#x1ee7;" horiz-adv-x="591" 
d="M249 603q48 0 70.5 13.5t22.5 44.5q0 26 -17 38t-53 12q-14 0 -33 -3t-27 -7v45q13 5 34.5 8t41.5 3q60 0 91 -25t31 -68q0 -37 -24.5 -63.5t-69.5 -30.5v-35h-67v68zM116.5 37q-51.5 52 -51.5 139v304h77v-308q0 -126 131 -126q55 0 96.5 24t74.5 76v334h77v-480h-75v72
q-65 -87 -182 -87q-96 0 -147.5 52z" />
    <glyph glyph-name="uni1EE8" unicode="&#x1ee8;" horiz-adv-x="814" 
d="M377 912h81l-80 -170h-69zM135.5 55q-70.5 70 -70.5 195v449h78v-455q0 -95 53 -142t148 -47t148 47t53 142v455h78v-76q95 0 95 88v36h71v-40q0 -40 -19.5 -73.5t-57.5 -53t-89 -19.5v-311q0 -125 -70.5 -195t-208.5 -70t-208.5 70z" />
    <glyph glyph-name="uni1EE9" unicode="&#x1ee9;" horiz-adv-x="699" 
d="M318 705h81l-80 -170h-69zM113 36q-48 51 -48 135v309h77v-302q0 -62 31.5 -97t99.5 -35q108 0 171 100v334h77v-47q41 1 65.5 25t24.5 62v38h63v-40q0 -58 -42 -97.5t-111 -40.5v-380h-75v77q-35 -48 -84 -70t-104 -22q-97 0 -145 51z" />
    <glyph glyph-name="uni1EEA" unicode="&#x1eea;" horiz-adv-x="814" 
d="M243 912h81l68 -170h-69zM135.5 55q-70.5 70 -70.5 195v449h78v-455q0 -95 53 -142t148 -47t148 47t53 142v455h78v-76q95 0 95 88v36h71v-40q0 -40 -19.5 -73.5t-57.5 -53t-89 -19.5v-311q0 -125 -70.5 -195t-208.5 -70t-208.5 70z" />
    <glyph glyph-name="uni1EEB" unicode="&#x1eeb;" horiz-adv-x="699" 
d="M186 705h81l68 -170h-69zM113 36q-48 51 -48 135v309h77v-302q0 -62 31.5 -97t99.5 -35q108 0 171 100v334h77v-47q41 1 65.5 25t24.5 62v38h63v-40q0 -58 -42 -97.5t-111 -40.5v-380h-75v77q-35 -48 -84 -70t-104 -22q-97 0 -145 51z" />
    <glyph glyph-name="uni1EEC" unicode="&#x1eec;" horiz-adv-x="814" 
d="M303 810q48 0 70.5 13.5t22.5 44.5q0 26 -17 38t-53 12q-14 0 -33 -3t-27 -7v45q13 5 34.5 8t41.5 3q60 0 91 -25t31 -68q0 -37 -24.5 -63.5t-69.5 -30.5v-35h-67v68zM135.5 55q-70.5 70 -70.5 195v449h78v-455q0 -95 53 -142t148 -47t148 47t53 142v455h78v-76
q95 0 95 88v36h71v-40q0 -40 -19.5 -73.5t-57.5 -53t-89 -19.5v-311q0 -125 -70.5 -195t-208.5 -70t-208.5 70z" />
    <glyph glyph-name="uni1EED" unicode="&#x1eed;" horiz-adv-x="699" 
d="M257 603q48 0 70.5 13.5t22.5 44.5q0 26 -17 38t-53 12q-14 0 -33 -3t-27 -7v45q13 5 34.5 8t41.5 3q60 0 91 -25t31 -68q0 -37 -24.5 -63.5t-69.5 -30.5v-35h-67v68zM113 36q-48 51 -48 135v309h77v-302q0 -62 31.5 -97t99.5 -35q108 0 171 100v334h77v-47q41 1 65.5 25
t24.5 62v38h63v-40q0 -58 -42 -97.5t-111 -40.5v-380h-75v77q-35 -48 -84 -70t-104 -22q-97 0 -145 51z" />
    <glyph glyph-name="uni1EEE" unicode="&#x1eee;" horiz-adv-x="814" 
d="M163 811q28 43 95 43q22 0 42 -6t51 -19q26 -12 46 -18.5t42 -6.5q29 0 52.5 12t42.5 40v-69q-28 -42 -95 -42q-25 0 -47 6.5t-50 19.5q-28 12 -45.5 18t-38.5 6q-28 0 -51 -12t-44 -41v69zM135.5 55q-70.5 70 -70.5 195v449h78v-455q0 -95 53 -142t148 -47t148 47
t53 142v455h78v-76q95 0 95 88v36h71v-40q0 -40 -19.5 -73.5t-57.5 -53t-89 -19.5v-311q0 -125 -70.5 -195t-208.5 -70t-208.5 70z" />
    <glyph glyph-name="uni1EEF" unicode="&#x1eef;" horiz-adv-x="699" 
d="M112 604q28 43 95 43q22 0 42 -6t51 -19q26 -12 46 -18.5t42 -6.5q29 0 52.5 12t42.5 40v-69q-28 -42 -95 -42q-25 0 -47 6.5t-50 19.5q-28 12 -45.5 18t-38.5 6q-28 0 -51 -12t-44 -41v69zM113 36q-48 51 -48 135v309h77v-302q0 -62 31.5 -97t99.5 -35q108 0 171 100
v334h77v-47q41 1 65.5 25t24.5 62v38h63v-40q0 -58 -42 -97.5t-111 -40.5v-380h-75v77q-35 -48 -84 -70t-104 -22q-97 0 -145 51z" />
    <glyph glyph-name="uni1EF0" unicode="&#x1ef0;" horiz-adv-x="814" 
d="M135.5 55q-70.5 70 -70.5 195v449h78v-455q0 -95 53 -142t148 -47t148 47t53 142v455h78v-76q95 0 95 88v36h71v-40q0 -40 -19.5 -73.5t-57.5 -53t-89 -19.5v-311q0 -125 -70.5 -195t-208.5 -70t-208.5 70zM307 -137.5q-15 14.5 -15 34.5t15 34.5t35 14.5t34.5 -14.5
t14.5 -34.5t-14.5 -34.5t-34.5 -14.5t-35 14.5z" />
    <glyph glyph-name="uni1EF1" unicode="&#x1ef1;" horiz-adv-x="699" 
d="M113 36q-48 51 -48 135v309h77v-302q0 -62 31.5 -97t99.5 -35q108 0 171 100v334h77v-47q41 1 65.5 25t24.5 62v38h63v-40q0 -58 -42 -97.5t-111 -40.5v-380h-75v77q-35 -48 -84 -70t-104 -22q-97 0 -145 51zM256 -137.5q-15 14.5 -15 34.5t15 34.5t35 14.5t34.5 -14.5
t14.5 -34.5t-14.5 -34.5t-34.5 -14.5t-35 14.5z" />
    <glyph glyph-name="Ygrave" unicode="&#x1ef2;" horiz-adv-x="686" 
d="M226 912h81l68 -170h-69zM304 265l-254 434h83l210 -363l211 363h82l-254 -434v-265h-78v265z" />
    <glyph glyph-name="ygrave" unicode="&#x1ef3;" horiz-adv-x="575" 
d="M190 705h81l68 -170h-69zM78 -189v62q11 -4 31.5 -7t34.5 -3q34 0 55 18t38 60l26 62l-213 477h82l172 -388l159 388h82l-222 -544q-28 -69 -65.5 -101.5t-97.5 -32.5q-46 0 -82 9z" />
    <glyph glyph-name="uni1EF4" unicode="&#x1ef4;" horiz-adv-x="686" 
d="M304 265l-254 434h83l210 -363l211 363h82l-254 -434v-265h-78v265zM309 -137.5q-15 14.5 -15 34.5t15 34.5t35 14.5t34.5 -14.5t14.5 -34.5t-14.5 -34.5t-34.5 -14.5t-35 14.5z" />
    <glyph glyph-name="uni1EF5" unicode="&#x1ef5;" horiz-adv-x="575" 
d="M78 -189v62q11 -4 31.5 -7t34.5 -3q34 0 55 18t38 60l26 62l-213 477h82l172 -388l159 388h82l-222 -544q-28 -69 -65.5 -101.5t-97.5 -32.5q-46 0 -82 9zM386 -135.5q-15 14.5 -15 34.5t15 34.5t35 14.5t34.5 -14.5t14.5 -34.5t-14.5 -34.5t-34.5 -14.5t-35 14.5z" />
    <glyph glyph-name="uni1EF6" unicode="&#x1ef6;" horiz-adv-x="686" 
d="M302 810q48 0 70.5 13.5t22.5 44.5q0 26 -17 38t-53 12q-14 0 -33 -3t-27 -7v45q13 5 34.5 8t41.5 3q60 0 91 -25t31 -68q0 -37 -24.5 -63.5t-69.5 -30.5v-35h-67v68zM304 265l-254 434h83l210 -363l211 363h82l-254 -434v-265h-78v265z" />
    <glyph glyph-name="uni1EF7" unicode="&#x1ef7;" horiz-adv-x="575" 
d="M260 603q48 0 70.5 13.5t22.5 44.5q0 26 -17 38t-53 12q-14 0 -33 -3t-27 -7v45q13 5 34.5 8t41.5 3q60 0 91 -25t31 -68q0 -37 -24.5 -63.5t-69.5 -30.5v-35h-67v68zM78 -189v62q11 -4 31.5 -7t34.5 -3q34 0 55 18t38 60l26 62l-213 477h82l172 -388l159 388h82
l-222 -544q-28 -69 -65.5 -101.5t-97.5 -32.5q-46 0 -82 9z" />
    <glyph glyph-name="uni1EF8" unicode="&#x1ef8;" horiz-adv-x="686" 
d="M158 811q28 43 95 43q22 0 42 -6t51 -19q26 -12 46 -18.5t42 -6.5q29 0 52.5 12t42.5 40v-69q-28 -42 -95 -42q-25 0 -47 6.5t-50 19.5q-28 12 -45.5 18t-38.5 6q-28 0 -51 -12t-44 -41v69zM304 265l-254 434h83l210 -363l211 363h82l-254 -434v-265h-78v265z" />
    <glyph glyph-name="uni1EF9" unicode="&#x1ef9;" horiz-adv-x="575" 
d="M119 604q28 43 95 43q22 0 42 -6t51 -19q26 -12 46 -18.5t42 -6.5q29 0 52.5 12t42.5 40v-69q-28 -42 -95 -42q-25 0 -47 6.5t-50 19.5q-28 12 -45.5 18t-38.5 6q-28 0 -51 -12t-44 -41v69zM78 -189v62q11 -4 31.5 -7t34.5 -3q34 0 55 18t38 60l26 62l-213 477h82
l172 -388l159 388h82l-222 -544q-28 -69 -65.5 -101.5t-97.5 -32.5q-46 0 -82 9z" />
    <glyph glyph-name="uni2007" unicode="&#x2007;" 
 />
    <glyph glyph-name="uni2010" unicode="&#x2010;" horiz-adv-x="442" 
d="M50 328h342v-65h-342v65z" />
    <glyph glyph-name="figuredash" unicode="&#x2012;" horiz-adv-x="675" 
d="M50 328h575v-65h-575v65z" />
    <glyph glyph-name="endash" unicode="&#x2013;" horiz-adv-x="638" 
d="M50 328h538v-65h-538v65z" />
    <glyph glyph-name="emdash" unicode="&#x2014;" horiz-adv-x="787" 
d="M50 328h687v-65h-687v65z" />
    <glyph glyph-name="uni2015" unicode="&#x2015;" horiz-adv-x="1022" 
d="M50 328h922v-65h-922v65z" />
    <glyph glyph-name="quoteleft" unicode="&#x2018;" horiz-adv-x="242" 
d="M127 714h65l-67 -193h-75z" />
    <glyph glyph-name="quoteright" unicode="&#x2019;" horiz-adv-x="244" 
d="M117 714h77l-78 -193h-66z" />
    <glyph glyph-name="quotesinglbase" unicode="&#x201a;" horiz-adv-x="244" 
d="M117 71h77l-78 -193h-66z" />
    <glyph glyph-name="quotedblleft" unicode="&#x201c;" horiz-adv-x="394" 
d="M128 714h66l-67 -193h-77zM278 714h66l-67 -193h-77z" />
    <glyph glyph-name="quotedblright" unicode="&#x201d;" horiz-adv-x="394" 
d="M117 714h77l-78 -193h-66zM267 714h77l-78 -193h-66z" />
    <glyph glyph-name="quotedblbase" unicode="&#x201e;" horiz-adv-x="394" 
d="M117 71h77l-78 -193h-66zM267 71h77l-78 -193h-66z" />
    <glyph glyph-name="dagger" unicode="&#x2020;" horiz-adv-x="532" 
d="M227 450h-177v66h177v183h78v-183h177v-66h-177v-520h-78v520z" />
    <glyph glyph-name="daggerdbl" unicode="&#x2021;" horiz-adv-x="532" 
d="M227 174h-177v66h177v219h-177v66h177v174h78v-174h177v-66h-177v-219h177v-66h-177v-174h-78v174z" />
    <glyph glyph-name="bullet" unicode="&#x2022;" horiz-adv-x="265" 
d="M74 239q-24 24 -24 58q0 35 24 59t58 24q35 0 59 -24t24 -59q0 -34 -24 -58t-59 -24q-34 0 -58 24z" />
    <glyph glyph-name="ellipsis" unicode="&#x2026;" horiz-adv-x="590" 
d="M62.5 12.5q-12.5 12.5 -12.5 31.5t12.5 32t31.5 13t32 -13t13 -32t-13 -31.5t-32 -12.5t-31.5 12.5zM262.5 12.5q-12.5 12.5 -12.5 31.5t12.5 32t31.5 13t32 -13t13 -32t-13 -31.5t-32 -12.5t-31.5 12.5zM463.5 12.5q-12.5 12.5 -12.5 31.5t12.5 32t31.5 13t32 -13
t13 -32t-13 -31.5t-32 -12.5t-31.5 12.5z" />
    <glyph glyph-name="perthousand" unicode="&#x2030;" horiz-adv-x="1288" 
d="M141 371.5q-42 24.5 -66.5 66.5t-24.5 92t24.5 92.5t66.5 67t92 24.5t92.5 -24.5t67 -67t24.5 -92.5t-24.5 -92t-67 -66.5t-92.5 -24.5t-92 24.5zM595 699h76l-387 -699h-76zM320 442q35 35 35 87t-35 87t-87 35t-87 -35t-35 -87t35 -87t87 -35t87 35zM553 9.5
q-42 24.5 -66.5 66.5t-24.5 92t24.5 92.5t66.5 67t92 24.5t92.5 -24.5t67 -67t24.5 -92.5t-24.5 -92t-67 -66.5t-92.5 -24.5t-92 24.5zM962 9.5q-42 24.5 -66.5 66.5t-24.5 92t24.5 92.5t66.5 67t92 24.5t92.5 -24.5t67 -67t24.5 -92.5t-24.5 -92t-67 -66.5t-92.5 -24.5
t-92 24.5zM732 80q35 35 35 87t-35 87t-87 35t-87 -35t-35 -87t35 -87t87 -35t87 35zM1141 80q35 35 35 87t-35 87t-87 35t-87 -35t-35 -87t35 -87t87 -35t87 35z" />
    <glyph glyph-name="minute" unicode="&#x2032;" horiz-adv-x="177" 
d="M50 699h77v-181h-77v181z" />
    <glyph glyph-name="second" unicode="&#x2033;" horiz-adv-x="340" 
d="M50 699h77v-181h-77v181zM213 699h77v-181h-77v181z" />
    <glyph glyph-name="guilsinglleft" unicode="&#x2039;" horiz-adv-x="365" 
d="M50 309v27l227 189l38 -49l-184 -153l184 -153l-38 -49z" />
    <glyph glyph-name="guilsinglright" unicode="&#x203a;" horiz-adv-x="365" 
d="M50 170l183 153l-183 153l38 49l227 -189v-27l-227 -188z" />
    <glyph glyph-name="fraction" unicode="&#x2044;" horiz-adv-x="268" 
d="M285 714h83l-385 -729h-83z" />
    <glyph glyph-name="uni2070" unicode="&#x2070;" horiz-adv-x="391" 
d="M89 406q-39 47 -39 128t38.5 128t106.5 47t107 -47t39 -128t-39 -128t-107 -47q-67 0 -106 47zM261.5 442q24.5 32 24.5 92q0 59 -24.5 91.5t-66.5 32.5t-66.5 -32.5t-24.5 -91.5t24.5 -91.5t66.5 -32.5t66.5 32z" />
    <glyph glyph-name="uni2074" unicode="&#x2074;" horiz-adv-x="331" 
d="M192 448h-162v43l156 208h66v-206h49v-45h-49v-78h-60v78zM199 493v147l-112 -147h112z" />
    <glyph glyph-name="uni2075" unicode="&#x2075;" horiz-adv-x="342" 
d="M94 365.5q-28 5.5 -44 14.5v52q18 -11 43.5 -16.5t48.5 -5.5q47 0 69 16.5t22 49.5t-20.5 49t-67.5 16q-39 0 -70 -11l-18 10l12 159h198v-48h-146l-6 -73q28 7 58 7q60 0 89.5 -29t29.5 -80q0 -54 -37.5 -85t-105.5 -31q-27 0 -55 5.5z" />
    <glyph glyph-name="uni2076" unicode="&#x2076;" horiz-adv-x="364" 
d="M86.5 398.5q-36.5 38.5 -36.5 109.5q0 98 44.5 149.5t118.5 51.5q31 0 55 -6v-45q-17 7 -50 7q-96 0 -112 -111q14 21 37.5 32.5t53.5 11.5q59 0 88 -32t29 -87q0 -53 -33.5 -86t-96.5 -33q-61 0 -97.5 38.5zM240 422.5q19 20.5 19 55.5q0 77 -73 77q-34 0 -55.5 -21
t-21.5 -56q0 -33 20 -54.5t55 -21.5q37 0 56 20.5z" />
    <glyph glyph-name="uni2077" unicode="&#x2077;" horiz-adv-x="317" 
d="M213 651h-173v48h237v-38l-133 -291h-60z" />
    <glyph glyph-name="uni2078" unicode="&#x2078;" horiz-adv-x="353" 
d="M83.5 385.5q-33.5 25.5 -33.5 71.5q0 33 18.5 56t47.5 29q-25 8 -39.5 28.5t-14.5 47.5q0 42 31.5 66.5t83.5 24.5t83 -24.5t31 -66.5q0 -27 -14.5 -47.5t-39.5 -28.5q29 -6 47.5 -29t18.5 -56q0 -46 -33 -71.5t-93 -25.5t-93.5 25.5zM220.5 577q15.5 15 15.5 39
q0 23 -16.5 37.5t-42.5 14.5t-43 -14.5t-17 -37.5q0 -24 16 -39t44 -15t43.5 15zM227.5 416.5q18.5 15.5 18.5 42.5q0 29 -18.5 45t-50.5 16q-33 0 -51.5 -16t-18.5 -45q0 -27 19 -42.5t51 -15.5t50.5 15.5z" />
    <glyph glyph-name="uni2079" unicode="&#x2079;" horiz-adv-x="364" 
d="M96 366v44q18 -6 50 -6q96 0 112 111q-13 -22 -37 -33t-54 -11q-59 0 -88 32t-29 87q0 53 33.5 86t96.5 33q61 0 97.5 -38.5t36.5 -109.5q0 -98 -44.5 -149.5t-118.5 -51.5q-37 0 -55 6zM234 535.5q21 21.5 21 55.5q0 33 -20 54t-55 21q-37 0 -56 -20t-19 -55
q0 -77 73 -77q35 0 56 21.5z" />
    <glyph glyph-name="uni207D" unicode="&#x207d;" horiz-adv-x="218" 
d="M64.5 437.5q-14.5 45.5 -14.5 96.5t14.5 96.5t41.5 78.5h62q-28 -36 -43 -81.5t-15 -93.5q0 -49 15 -94t43 -80h-62q-27 32 -41.5 77.5z" />
    <glyph glyph-name="uni207E" unicode="&#x207e;" horiz-adv-x="218" 
d="M92.5 440.5q14.5 45.5 14.5 93.5t-14.5 93.5t-42.5 81.5h62q27 -33 41.5 -78.5t14.5 -96.5q0 -50 -15 -96t-41 -78h-62q28 35 42.5 80.5z" />
    <glyph glyph-name="uni207F" unicode="&#x207f;" horiz-adv-x="444" 
d="M55 699h60v-51q26 34 62 50t76 16q70 0 105.5 -35.5t35.5 -94.5v-224h-62v212q0 44 -21.5 68t-70.5 24q-78 0 -124 -71v-233h-61v339z" />
    <glyph glyph-name="uni2080" unicode="&#x2080;" horiz-adv-x="391" 
d="M89 -123q-39 47 -39 127q0 81 38.5 128t106.5 47t107 -47t39 -128q0 -80 -39 -127t-107 -47q-67 0 -106 47zM261.5 -87q24.5 32 24.5 91q0 60 -24 92t-67 32q-42 0 -66.5 -32t-24.5 -92q0 -59 25 -91t66 -32q42 0 66.5 32z" />
    <glyph glyph-name="uni2081" unicode="&#x2081;" horiz-adv-x="230" 
d="M140 106l-90 -66v59l94 70h56v-329h-60v266z" />
    <glyph glyph-name="uni2082" unicode="&#x2082;" horiz-adv-x="341" 
d="M50 -119l81 71q7 6 40 34.5t45 49t12 40.5q0 51 -63 51q-23 0 -51 -7.5t-48 -21.5v54q18 12 47.5 19t54.5 7q58 0 89 -27.5t31 -71.5q0 -27 -10 -47t-26.5 -37t-52.5 -48l-68 -60h160v-48h-241v42z" />
    <glyph glyph-name="uni2083" unicode="&#x2083;" horiz-adv-x="343" 
d="M50 -153v49q21 -10 48 -15t53 -5q37 0 59 13t22 40q0 29 -19 41.5t-63 12.5h-43v46h42q36 0 54.5 13.5t18.5 39.5q0 50 -72 50q-50 0 -92 -27v48q42 26 106 26q58 0 89 -24.5t31 -67.5q0 -61 -61 -80q35 -6 52.5 -27t17.5 -54q0 -45 -35 -70.5t-97 -25.5q-70 0 -111 17z
" />
    <glyph glyph-name="uni2084" unicode="&#x2084;" horiz-adv-x="331" 
d="M192 -83h-162v44l156 208h67v-206h48v-46h-48v-77h-61v77zM199 -37v146l-111 -146h111z" />
    <glyph glyph-name="uni2085" unicode="&#x2085;" horiz-adv-x="342" 
d="M94 -164.5q-28 5.5 -44 14.5v52q18 -10 43.5 -16t48.5 -6q47 0 69 16.5t22 49.5t-20.5 49t-67.5 16q-40 0 -70 -12l-18 11l12 159h198v-48h-146l-6 -73q28 7 58 7q60 0 89.5 -29t29.5 -80q0 -54 -37.5 -85t-105.5 -31q-27 0 -55 5.5z" />
    <glyph glyph-name="uni2086" unicode="&#x2086;" horiz-adv-x="369" 
d="M87.5 -130.5q-37.5 39.5 -37.5 109.5q0 98 44.5 149t118.5 51q31 0 55 -6v-45q-17 7 -50 7q-46 0 -74.5 -25.5t-37.5 -83.5q13 21 38 32.5t55 11.5q59 0 89.5 -33t30.5 -87q0 -52 -35 -86t-98 -34q-61 0 -98.5 39.5zM243.5 -107q20.5 21 20.5 56q0 36 -19 57t-56 21
q-35 0 -57.5 -22t-22.5 -56q0 -33 21 -55t56 -22q37 0 57.5 21z" />
    <glyph glyph-name="uni2087" unicode="&#x2087;" horiz-adv-x="317" 
d="M213 121h-173v48h237v-38l-133 -291h-60z" />
    <glyph glyph-name="uni2088" unicode="&#x2088;" horiz-adv-x="353" 
d="M83.5 -144.5q-33.5 25.5 -33.5 71.5q0 33 18.5 56t47.5 29q-25 8 -39.5 28.5t-14.5 47.5q0 42 31.5 66.5t83.5 24.5t83 -24.5t31 -66.5q0 -27 -14.5 -47.5t-39.5 -28.5q29 -6 47.5 -29t18.5 -56q0 -46 -33 -71.5t-93 -25.5t-93.5 25.5zM220.5 47q15.5 15 15.5 39
q0 23 -16.5 37.5t-42.5 14.5t-43 -14.5t-17 -37.5q0 -24 16 -39t44 -15t43.5 15zM227.5 -113.5q18.5 15.5 18.5 42.5q0 29 -18.5 45t-50.5 16q-33 0 -51.5 -16t-18.5 -45q0 -27 19 -42.5t51 -15.5t50.5 15.5z" />
    <glyph glyph-name="uni2089" unicode="&#x2089;" horiz-adv-x="369" 
d="M101 -164v44q18 -6 50 -6q46 0 74.5 25.5t37.5 83.5q-13 -21 -37.5 -32.5t-55.5 -11.5q-59 0 -89.5 32.5t-30.5 87.5q0 52 35 86t98 34q61 0 98.5 -39.5t37.5 -109.5q0 -98 -44.5 -149t-118.5 -51q-37 0 -55 6zM237.5 4q22.5 22 22.5 56q0 33 -21 54.5t-56 21.5
q-37 0 -57.5 -20.5t-20.5 -55.5q0 -37 19 -57.5t56 -20.5q35 0 57.5 22z" />
    <glyph glyph-name="uni208D" unicode="&#x208d;" horiz-adv-x="218" 
d="M64.5 -102.5q-14.5 45.5 -14.5 96.5t14.5 96.5t41.5 78.5h62q-28 -36 -43 -81.5t-15 -93.5q0 -49 15 -94t43 -80h-62q-27 32 -41.5 77.5z" />
    <glyph glyph-name="uni208E" unicode="&#x208e;" horiz-adv-x="218" 
d="M92.5 -99.5q14.5 45.5 14.5 93.5t-14.5 93.5t-42.5 81.5h62q27 -33 41.5 -78.5t14.5 -96.5q0 -50 -15 -96t-41 -78h-62q28 35 42.5 80.5z" />
    <glyph glyph-name="colonmonetary" unicode="&#x20a1;" horiz-adv-x="696" 
d="M146 85q-46 48 -71 115t-25 149q0 105 41.5 186t115.5 127.5t170 50.5l26 71h68l-27 -72q38 -4 81 -16l33 88h68l-41 -112q28 -15 52 -34v-76q-33 29 -75 49l-203 -553q21 -3 44 -3q75 0 134 20t109 66v-77q-89 -79 -249 -79q-30 0 -63 5l-23 -65h-68l29 80
q-40 14 -74 36l-42 -116h-68zM502 631q-41 11 -83 12l-194 -528q31 -25 72 -41zM349 638q-101 -17 -161 -94t-60 -195q0 -105 49 -179z" />
    <glyph glyph-name="lira" unicode="&#x20a4;" horiz-adv-x="490" 
d="M50 59h83v122h-76v59h76v127h-76v59h76v115q0 83 52 128t130 45q37 0 72 -10v-61q-22 10 -55 10q-120 0 -120 -113v-114h187v-59h-187v-127h187v-59h-187v-122h228v-59h-390v59z" />
    </font>
</defs>
</svg>
